Regarder un film | The Victim DVDRIP | Eşkiya Dünyaya Hükümdar OlmazPaddington (2014) | Season 4 Episode 18 Mishipeshu | Offline - Das Leben ist kein Bonuslevel
 


 

Filecrypt zeigt vereinzelt Files als "n/a". Die Downloads sind trotzdem komplett.

DNS SERVER AENDERNum der staatlichen Zensur zu umgehen. Sollten wir von eurem Provider geseprrt werden, nutzt den TOR BROWSER oder ändert euren DNS SERVER.

Filmwünsche können bei uns im Forum abgegeben werden

Wir Speichern Nicht




 
 
 
Top Releases
Ploetzlich.Papa.2016.German....
Gun.City.2018.German.AC3.108...
Ant.Man.and.the.Wasp.2018.Ge...
Ant.Man.and.the.Wasp.2018.Ge...
Ant.Man.and.the.Wasp.2018.Ge...
Star.Wars.Episode.VIII.Die.l...
Skyscraper.2018.German.720p....
Skyscraper.2018.German.DL.10...
Zoe.2018.German.DL.1080p.Blu...
Zoe.2018.GERMAN.720p.BluRay....

Cinedubs
10×10.2018.German.AC3D.DL.1...
10×10.2018.German.AC3D.DL.7...
Sicario.2.German.DL.AC3.Dubb...
Sicario.2.German.DL.AC3.Dubb...
Hotel.Artemis.German.DL.AC3....
Hotel.Artemis.German.DL.AC3....
Mission.Impossible.Fallout.2...
Mission.Impossible.Fallout.2...
BlacKkKlansman.2018.German.A...
BlacKkKlansman.2018.German.A...

Neuerscheinungen 2017-18
Flying.Revolution.2017.GERMA...
Dead.Men.Das.Gold.der.Apache...
Dead.Men.Das.Gold.der.Apache...
The.Boys.from.Brazil.1978.Ge...
Over.the.Top.1987.German.DL....
Over.the.Top.1987.German.DTS...
Over.the.Top.1987.German.DTS...
Flying.Revolution.2017.GERMA...
Dead.Men.Das.Gold.der.Apache...
Flying.Revolution.2017.GERMA...

XXX
Bang.RealTeens.18.10.29.Vina...
Babes.18.10.31.Ivy.Wolfe.Unm...
The.Game.XXX.1080p.WEBRip.MP...
TheLifeErotic.18.10.30.Lucy....
TonightsGirlfriend.18.10.31....
ATKGirlfriends.18.10.28.Khlo...
TwistysHard.18.10.31.Kimmy.G...
BustyArianna.18.07.23.Ariann...
BustyArianna.18.07.14.The.Ot...
The.Game.XXX.720p.WEBRip.MP4...
BustyArianna.18.07.29.Ariann...
ATKHairy.18.10.31.Andy.Moon....
AmateurCFNM.18.10.30.Ashley....
TheLifeErotic.18.10.28.Raisa...
Bang.ScrewTheCops.18.10.31.L...
DesperateAmateurs.18.10.28.S...
BangBrosClips.18.10.30.Aubre...
Bang.RealMILFs.18.10.30.Shee...
BackroomCastingCouch.18.10.2...
BustyArianna.18.06.23.Villa....

3D
Die.Unglaublichen.2.3D.2018....
Die.Unglaublichen.2.2018.3D....
Die.Unglaublichen.2.2018.3D....
Sharknado.6.The.Last.One.3D....
Deep.Kleine.Helden.der.Tiefs...
Deep.3D.2017.MULTI.COMPLETE....
Detective.Dee.und.die.Legend...
Detective.Dee.und.die.Legend...
Skyscraper.3D.German.DL.AC3....
Ant-Man.and.the.Wasp.2018.3D...
Jurassic.World.Das.gefallene...
Jurassic.World.Das.gefallene...
Best.of.3D.vol.10.-.12.GERMA...
Die.Biene.Maja.2.Die.Honigsp...
Sharknado.6.The.Last.One.3D....

Old_Stuff
Detective.Dee.und.das.Geheim...
Detective.Dee.Und.Der.Fluch....
Ghost.Rider.Spirit.of.Vengea...
Species.IV.Das.Erwachen.2007...
Species.IV.Das.Erwachen.2007...
Hotel.Transsilvanien.2012.Ge...
The.Dead.2010.German.DL.1080...
The.Dead.2.India.2013.German...
Britney.Spears.Live.The.Femm...
Buffy.The.Vampire.Slayer.199...
IMAX.Ride.Around.The.World.2...
Schimanski.-.Duisburg.Ruhror...
Akte.X.S02.German.DTS.DL.108...
How.I.Met.Your.Mother.S02.Ge...
Akte.X.S01.German.DTS.DL.108...

Filme
Logan.The.Wolverine.2017.NOI...
Logan.The.Wolverine.2017.NOI...
Herrliche.Zeiten.German.DTS....
The.Thing.Below.2004.German....
The.Thompsons.Uncut.2012.Ger...
The.Tigers.Tail.2006.German....
The.Timber.2015.German.DL.10...
The.Gifted.S02.GERMAN.DL.108...
The.Gifted.S02.GERMAN.DL.720...
Krypton.S01.GERMAN.DUBBED.72...
The.Deuce.S02.GERMAN.DL.720p...
Criminal.Minds.S13.GERMAN.DU...
4.Blocks.S02.GERMAN.1080p.HD...
4.Blocks.S02.GERMAN.720p.HDT...
Flying.Revolution.2017.GERMA...
Resident.Evil.2.2004.Uncut.G...
Star.Wars.Episode.III.Die.Ra...
Ab.in.die.Ewigkeit.1981.Germ...
The.Boys.from.Brazil.1978.Ge...
Over.the.Top.1987.German.DTS...
Joshua.Der.Erstgeborene.2007...
City.of.God.2002.German.DL.A...
Prom.Night.1980.German.AC3.D...
Eiskalte.Engel.1999.German.D...

 
 
The.Tigers.Tail.2006.German.DL.1080p.BluRay.x264-ENCOUNTERS

Jahr: 2006
Genre: Komödie, Drama
Sprache: Deutsch DTS | Englisch DTS
Laufzeit: 1h 47mn
Bitrate: 10.6 Mbps
Format: MKV
Größe: 7.95 GiB
Release:

Beschreibung:

Der irische Politiker Liam O’Leary, reich geworden mit nicht immer ganz sauberen Geschäften in einem Bauboom auf Pump, glaubt seinen Augen nicht zu trauen, als er eines Tages auf der Heimfahrt ein exaktes, nur eben ziemlich abgerissenes Ebenbild seiner selbst im Straßenverkehr entdeckt. Tatsächlich weicht ihm der unheimliche Doppelgänger fortan nicht mehr von der Fährte, mischt sich gar aktiv ein in sein Berufsleben und die (noch mehr kriselnde) private Existenz. Als O’Leary Gegenmaßnahmen ergreift, will ihm keiner glauben.



Complete name                            : encounters-thtita_1080p.mkv
Format                                   : Matroska
Format version                           : Version 4 / Version 2
File size                                : 7.95 GiB
Duration                                 : 1h 47mn
Overall bit rate                         : 10.6 Mbps
Encoded date                             : UTC 2013-03-30 07:17:45
Writing application                      : mkvmerge v6.0.0 ('Coming Up For Air') built on Jan 20 2013 09:52:00
Writing library                          : libebml v1.3.0 + libmatroska v1.4.0

Video
ID                                       : 1
Format                                   : AVC
Format/Info                              : Advanced Video Codec
Format profile                           : High@L4.1
Format settings, CABAC                   : Yes
Format settings, ReFrames                : 4 frames
Codec ID                                 : V_MPEG4/ISO/AVC
Duration                                 : 1h 47mn
Bit rate                                 : 7 574 Kbps
Width                                    : 1 920 pixels
Height                                   : 1 040 pixels
Display aspect ratio                     : 1.85:1
Frame rate mode                          : Constant
Frame rate                               : 23.976 fps
Color space                              : YUV
Chroma subsampling                       : 4:2:0
Bit depth                                : 8 bits
Scan type                                : Progressive
Bits/(Pixel*Frame)                       : 0.158
Stream size                              : 5.53 GiB (70%)
Writing library                          : x264 core 130 r2273 b3065e6
Encoding settings                        : cabac=1 / ref=4 / deblock=1:-1:-1 / analyse=0x3:0x133 / me=umh / subme=7 / psy=1 / psy_rd=1.00:0.15 / mixed_ref=1 / me_range=16 / chroma_me=1 / trellis=1 / 8x8dct=1 / cqm=0 / deadzone=21,11 / fast_pskip=0 / chroma_qp_offset=-3 / threads=9 / lookahead_threads=1 / sliced_threads=0 / nr=0 / decimate=1 / interlaced=0 / bluray_compat=0 / constrained_intra=0 / bframes=3 / b_pyramid=2 / b_adapt=1 / b_bias=0 / direct=1 / weightb=1 / open_gop=0 / weightp=2 / keyint=250 / keyint_min=23 / scenecut=40 / intra_refresh=0 / rc_lookahead=40 / rc=2pass / mbtree=1 / bitrate=7574 / ratetol=1.0 / qcomp=0.60 / qpmin=0 / qpmax=69 / qpstep=4 / cplxblur=20.0 / qblur=0.5 / ip_ratio=1.40 / aq=1:1.00
Default                                  : Yes
Forced                                   : No

Audio #1
ID                                       : 2
Format                                   : DTS
Format/Info                              : Digital Theater Systems
Mode                                     : 16
Format settings, Endianness              : Big
Codec ID                                 : A_DTS
Duration                                 : 1h 47mn
Bit rate mode                            : Constant
Bit rate                                 : 1 509 Kbps
Channel(s)                               : 6 channels
Channel positions                        : Front: L C R, Side: L R, LFE
Sampling rate                            : 48.0 KHz
Bit depth                                : 24 bits
Compression mode                         : Lossy
Stream size                              : 1.13 GiB (14%)
Title                                    : German
Language                                 : German
Default                                  : Yes
Forced                                   : No

Audio #2
ID                                       : 3
Format                                   : DTS
Format/Info                              : Digital Theater Systems
Mode                                     : 16
Format settings, Endianness              : Big
Codec ID                                 : A_DTS
Duration                                 : 1h 47mn
Bit rate mode                            : Constant
Bit rate                                 : 1 509 Kbps
Channel(s)                               : 6 channels
Channel positions                        : Front: L C R, Side: L R, LFE
Sampling rate                            : 48.0 KHz
Bit depth                                : 24 bits
Compression mode                         : Lossy
Stream size                              : 1.13 GiB (14%)
Title                                    : English
Language                                 : English
Default                                  : No
Forced                                   : No



Download:
Share Online Share OnlineShare OnlineShare Online
 

Kommentare