Filecrypt zeigt vereinzelt Files als "n/a". Die Downloads sind trotzdem komplett.

DNS SERVER AENDERNum der staatlichen Zensur zu umgehen. Sollten wir von eurem Provider geseprrt werden, nutzt den TOR BROWSER oder ändert euren DNS SERVER.

Filmwünsche können bei uns im Forum abgegeben werden

Wir Speichern Nicht




 
 
 
Top Releases
Maleika.2017.GERMAN.DOKU.108...
Ant-Man.And.The.Wasp.2018.Ge...
Apostle.2018.German.AC3.DL.1...
Brawl.in.Cell.Block.99.UNCUT...
Burning.2.On.Ice.2016.German...
22.Juli.2018.German.AC3.DL.1...
No.Way.Out.Gegen.die.Flammen...
Ant-Man.and.the.Wasp.2018.Ge...
Ant-Man.and.the.Wasp.2018.Ge...
Ant-Man.and.the.Wasp.2018.Ge...

Cinedubs
Slender.Man.2018.GERMAN.DL.A...
Slender.Man.2018.GERMAN.DL.A...
Bad.Spies.2018.German.AC3MD....
MEG.Biss.bald.2018.German.AC...
MEG.Biss.bald.2018.German.AC...
Bad.Spies.2018.German.AC3MD....
Bad.Spies.2018.German.AC3MD....
Searching.2018.German.AC3MD....
Searching.2018.German.AC3MD....
211.Cops.Under.Fire.2018.Ger...

Neuerscheinungen 2017-18
Ant-Man.and.the.Wasp.2018.Ge...
Ant-Man.and.the.Wasp.2018.Ge...
The.Dead.and.the.Damned.3.Ra...
The.Dead.and.the.Damned.3.Ra...
The.Watcher.Willkommen.im.Mo...
Term.Life.Moerderischer.Wett...
Ratter.Er.weiss.alles.ueber....
Maleika.2017.DOCU.GERMAN.COM...
Mr.Right.2015.German.AC3.DL....
Jessica.und.das.Rentier.Pran...

XXX
Spizoo.18.10.03.Nikki.Knight...
EternalDesire.18.10.02.Sulta...
SexArt.18.10.03.Stefany.Moon...
Submissived.18.10.01.Ember.S...
Beauty4K.18.10.05.Shona.Rive...
GirlsWay.18.10.01.Ashley.Ada...
GirlsOutWest.18.10.03.Daliah...
MistressT.18.06.26.Cocksucki...
SinsLife.18.10.02.Holly.Morg...
DeviceBondage.18.10.04.Bobbi...
MistressT.18.05.15.Chastity....
WankItNow.17.11.15.Beth.Spoi...
MistressT.17.12.26.Cock.Ring...
PornMegaLoad.18.10.04.Naia.B...
ATKGirlfriends.18.10.04.Jane...
MistressT.18.01.14.Cock.Cont...
TrueAnal.18.10.05.Anastasia....
Fitting-Room.18.10.01.Cassie...
JulesJordan.18.10.01.Arya.Fa...
BitchesAbroad.18.10.04.Julia...

3D
Jurassic.World.Das.gefallene...
Jurassic.World.Das.gefallene...
Best.of.3D.vol.10.-.12.GERMA...
Die.Biene.Maja.2.Die.Honigsp...
Sharknado.6.The.Last.One.3D....
Solo.A.Star.Wars.Story.3D.20...
Solo.A.Star.Wars.Story.3D.20...
Die.Biene.Maja.2.Die.Honigsp...
Avengers.Infinity.War.3D.201...
Avengers.Infinity.War.3D.201...
Rampage.Big.Meets.Bigger.3D....
Rampage.Big.Meets.Bigger.3D....
Rampage.Big.Meets.Bigger.3D....
Winter.Games.3D.2013.DUAL.CO...
Tomb.Raider.3D.2018.German.7...

Old_Stuff
Hotel.Transsilvanien.2012.Ge...
The.Dead.2010.German.DL.1080...
The.Dead.2.India.2013.German...
Britney.Spears.Live.The.Femm...
Buffy.The.Vampire.Slayer.199...
IMAX.Ride.Around.The.World.2...
Schimanski.-.Duisburg.Ruhror...
Akte.X.S02.German.DTS.DL.108...
How.I.Met.Your.Mother.S02.Ge...
Akte.X.S01.German.DTS.DL.108...
Den.Himmel.gibts.echt.DL.108...
Vikings.S02.German.DL.1080p....
Be.Kind.Rewind.Abgedreht.200...
Be.Kind.Rewind.Abgedreht.200...
Dracula.The.Dark.Lord.2012.G...

Filme
Avatar.Aufbruch.nach.Pandora...
Enders.Game.Das.grosse.Spiel...
Dritte.Person.German.DL.1080...
The.Frankenstein.Theory.2013...
The.Game.1997.German.DTS.DL....
The.Gang.Auge.um.Auge.2011.G...
Diane.-.Kurtisane.von.Frankr...
Gangsters.Guns.Zombies.2012....
The.Dead.and.the.Damned.3.Ra...
Brawl.in.Cell.Block.99.UNCUT...
The.Fast.And.The.Furious.Tok...
The.Fast.and.the.Furious.Tok...
Jay.And.Silent.Bob.Strike.Ba...
Weltengaenger.2018.GERMAN.DL...
Salman.Khan.-.Veer.2010.GERM...
Trolls.2016.German.DTSD.DL.2...
Antarktis.Leben.am.Limit.201...
Black.Lightning.S02.GERMAN.D...
Black.Lightning.S02.GERMAN.D...
The.Walking.Dead.S09.GERMAN....
The.Walking.Dead.S09.GERMAN....
City.of.Industry.1997.German...
Das.Yakuza.Kartel.German.199...
Doctor.Who.Aus.der.Zeit.gefa...

 
 
The.Gang.Auge.um.Auge.2011.German.DL.1080p.BluRay.x264-ENCOUNTERS

Jahr: 2011
Genre: Krimi, Drama, Geschichte
Sprache: Deutsch DTS | Englisch DTS
Laufzeit: 1h 51mn
Bitrate: 6 048 Kbps
Format: MKV
Größe: 4.72 GiB
Release:

Beschreibung:

Holland in den 30er Jahren. Im katholischen Städtchen Oss im Süden des Landes geben kriminelle Elemente den Ton an und liefern sich sporadische Scharmützel mit den protestantischen Militäreinheiten, die von der Regierung eigentlich gesandt wurden, um die Lage zu befrieden. In all dem Tumult versucht die Restaurantbetreiberin Johanna ein friedliches Leben zu führen, was von ihrem Gangstergatten jedoch regelmäßig konterkariert wird. Als sie auf Abhilfe sinnt, verstrickt sie sich nur noch stärker in den Armen der Unterwelt.



Complete name                            : encounters-thgaauumau_1080p.mkv
Format                                   : Matroska
Format version                           : Version 4 / Version 2
File size                                : 4.72 GiB
Duration                                 : 1h 51mn
Overall bit rate                         : 6 048 Kbps
Encoded date                             : UTC 2015-09-16 19:59:26
Writing application                      : mkvmerge v8.3.0 ('Over the Horizon') 64bit
Writing library                          : libebml v1.3.1 + libmatroska v1.4.2
DURATION                                 : 01:51:47.936000000
NUMBER_OF_FRAMES                         : 628869
NUMBER_OF_BYTES                          : 643961924
_STATISTICS_WRITING_APP                  : mkvmerge v8.3.0 ('Over the Horizon') 64bit
_STATISTICS_WRITING_DATE_UTC             : 2015-09-16 19:59:26
_STATISTICS_TAGS                         : BPS DURATION NUMBER_OF_FRAMES NUMBER_OF_BYTES

Video
ID                                       : 1
Format                                   : AVC
Format/Info                              : Advanced Video Codec
Format profile                           : High@L4.1
Format settings, CABAC                   : Yes
Format settings, ReFrames                : 5 frames
Codec ID                                 : V_MPEG4/ISO/AVC
Duration                                 : 1h 51mn
Bit rate                                 : 4 392 Kbps
Width                                    : 1 920 pixels
Height                                   : 800 pixels
Display aspect ratio                     : 2.40:1
Frame rate mode                          : Constant
Frame rate                               : 23.976 fps
Color space                              : YUV
Chroma subsampling                       : 4:2:0
Bit depth                                : 8 bits
Scan type                                : Progressive
Bits/(Pixel*Frame)                       : 0.119
Stream size                              : 3.43 GiB (73%)
Writing library                          : x264 core 148 r2597 e86f3a1
Encoding settings                        : cabac=1 / ref=5 / deblock=1:-1:-1 / analyse=0x3:0x133 / me=umh / subme=7 / psy=1 / psy_rd=1.00:0.15 / mixed_ref=1 / me_range=16 / chroma_me=1 / trellis=1 / 8x8dct=1 / cqm=0 / deadzone=21,11 / fast_pskip=0 / chroma_qp_offset=-3 / threads=8 / lookahead_threads=1 / sliced_threads=0 / nr=0 / decimate=1 / interlaced=0 / bluray_compat=0 / constrained_intra=0 / bframes=3 / b_pyramid=2 / b_adapt=1 / b_bias=0 / direct=1 / weightb=1 / open_gop=0 / weightp=2 / keyint=250 / keyint_min=23 / scenecut=40 / intra_refresh=0 / rc_lookahead=40 / rc=crf / mbtree=1 / crf=20.0 / qcomp=0.60 / qpmin=0 / qpmax=69 / qpstep=4 / ip_ratio=1.40 / aq=1:1.00
Default                                  : Yes
Forced                                   : No

Audio #1
ID                                       : 2
Format                                   : DTS
Format/Info                              : Digital Theater Systems
Mode                                     : 16
Format settings, Endianness              : Big
Codec ID                                 : A_DTS
Duration                                 : 1h 51mn
Bit rate mode                            : Constant
Bit rate                                 : 768 Kbps
Channel(s)                               : 6 channels
Channel positions                        : Front: L C R, Side: L R, LFE
Sampling rate                            : 48.0 KHz
Bit depth                                : 16 bits
Compression mode                         : Lossy
Stream size                              : 614 MiB (13%)
Language                                 : German
Default                                  : Yes
Forced                                   : No

Audio #2
ID                                       : 3
Format                                   : DTS
Format/Info                              : Digital Theater Systems
Mode                                     : 16
Format settings, Endianness              : Big
Codec ID                                 : A_DTS
Duration                                 : 1h 51mn
Bit rate mode                            : Constant
Bit rate                                 : 768 Kbps
Channel(s)                               : 6 channels
Channel positions                        : Front: L C R, Side: L R, LFE
Sampling rate                            : 48.0 KHz
Bit depth                                : 16 bits
Compression mode                         : Lossy
Stream size                              : 614 MiB (13%)
Language                                 : English
Default                                  : No
Forced                                   : No


Download:
Share Online Share OnlineShare OnlineShare Online
 

Kommentare