Filecrypt zeigt vereinzelt Files als "n/a". Die Downloads sind trotzdem komplett.

DNS SERVER AENDERNum der staatlichen Zensur zu umgehen. Sollten wir von eurem Provider geseprrt werden, nutzt den TOR BROWSER oder ändert euren DNS SERVER.

Filmwünsche können bei uns im Forum abgegeben werden

Wir Speichern Nicht




 
 
 
Top Releases
22.Juli.2018.German.AC3.DL.1...
No.Way.Out.Gegen.die.Flammen...
Ant-Man.and.the.Wasp.2018.Ge...
Ant-Man.and.the.Wasp.2018.Ge...
Ant-Man.and.the.Wasp.2018.Ge...
Ant-Man.And.The.Wasp.2018.CO...
Feinde.Hostiles.2017.German....
Journeyman.2017.German.AC3.D...
Errementari.Der.Schmied.und....
Errementari.Der.Schmied.und....

Cinedubs
Searching.2018.German.AC3MD....
Searching.2018.German.AC3MD....
211.Cops.Under.Fire.2018.Ger...
211.Cops.Under.Fire.2018.Ger...
MEG.Biss.bald.2018.German.AC...
MEG.Biss.bald.2018.German.AC...
Mamma.Mia.2.Here.We.Go.Again...
Mamma.Mia.2.Here.We.Go.Again...
Skyscraper.German.DL.AC3.Dub...
Skyscraper.German.DL.AC3.Dub...

Neuerscheinungen 2017-18
Nach.einer.wahren.Geschichte...
The.Watcher.Willkommen.im.Mo...
The.Watcher.Willkommen.im.Mo...
The.Darkest.Minds.Die.Ueberl...
The.Darkest.Minds.Die.Ueberl...
6.Headed.Shark.Attack.Dont.m...
6.Headed.Shark.Attack.Dont.m...
Stratton.2017.German.AC3.DL....
Muse.2017.German.DL.1080p.Bl...
Hangman.The.Killing.Game.201...

XXX
BlackedRaw.18.10.04.Kissa.Si...
WankItNow.17.11.17.Kate.Anne...
BreakingAsses.18.10.04.Ashle...
LezCuties.18.10.05.Nesty.Gin...
BigTitsRoundAsses.18.10.04.K...
MistressT.18.02.01.Spit.Roas...
BigTitsAtWork.18.10.03.Valen...
Penthouse.Sinful.Deeds.And.D...
MistressT.18.08.08.Specific....
PureCFNM.18.10.05.Diverse.St...
InTheCrack.E1455.Mia.Evans.X...
WankItNow.18.09.20.Jess.West...
MistressT.18.02.16.Femdom.Ru...
WankItNow.18.09.19.Lucy.Alex...
DigitalPlayground.18.10.01.M...
PlumperPass.18.10.01.Kendra....
ATKGirlfriends.18.10.02.Gia....
NuruMassage.18.10.03.Judy.Jo...
MyFriendsHotMom.18.10.04.Nin...
PureTaboo.18.10.04.Adriana.C...

3D
Jurassic.World.Das.gefallene...
Jurassic.World.Das.gefallene...
Best.of.3D.vol.10.-.12.GERMA...
Die.Biene.Maja.2.Die.Honigsp...
Sharknado.6.The.Last.One.3D....
Solo.A.Star.Wars.Story.3D.20...
Solo.A.Star.Wars.Story.3D.20...
Die.Biene.Maja.2.Die.Honigsp...
Avengers.Infinity.War.3D.201...
Avengers.Infinity.War.3D.201...
Rampage.Big.Meets.Bigger.3D....
Rampage.Big.Meets.Bigger.3D....
Rampage.Big.Meets.Bigger.3D....
Winter.Games.3D.2013.DUAL.CO...
Tomb.Raider.3D.2018.German.7...

Old_Stuff
Britney.Spears.Live.The.Femm...
Buffy.The.Vampire.Slayer.199...
IMAX.Ride.Around.The.World.2...
Schimanski.-.Duisburg.Ruhror...
Akte.X.S02.German.DTS.DL.108...
How.I.Met.Your.Mother.S02.Ge...
Akte.X.S01.German.DTS.DL.108...
Den.Himmel.gibts.echt.DL.108...
Vikings.S02.German.DL.1080p....
Be.Kind.Rewind.Abgedreht.200...
Be.Kind.Rewind.Abgedreht.200...
Dracula.The.Dark.Lord.2012.G...
21.2008.German.DL.1080p.BluR...
Achtung.fertig.WK.Swissgerma...
The.Ouija.Exorcism.2015.MULT...

Filme
205.Zimmer.der.Angst.2011.Ge...
Attack.of.the.Undead.2011.Ge...
Attack.of.the.Yakuza.2008.Ge...
Attack.of.the.Nazi.Herbals.2...
Tootsie.1982.German.AC3D.DL....
Voll.verkatert.2016.German.A...
Ein.ganz.verrueckter.Freitag...
Man.Eaters.Leichenhaus.des.G...
Ein.Vogel.auf.dem.Drahtseil....
Mission.Impossible.III.2006....
The.Purge.S01.German.DD+51.D...
The.Purge.S01.German.DD+51.D...
Upside.Down.2012.German.AC3....
Street.Fighter.Die.entscheid...
Vijay.und.ich.Meine.Frau.geh...
Journeyman.2016.German.DTS.D...
Atrocious.2010.German.1080p....
Attack.from.the.Atlantic.Rim...
Fightworld.S01.Complete.Germ...
Spuk.in.Hill.House.S01.COMPL...
Spuk.in.Hill.House.S01.COMPL...
Humans.S03.German.DD20.Dubbe...
iZombie.S04.German.DD51.Dubb...
iZombie.S04.German.DD51.Dubb...

 
 
Nach.einer.wahren.Geschichte.2017.German.AC3.DL.1080p.BluRay.x265-FuN

Jahr: 2017
Genre: Komödie, Drama
Sprache: Deutsch AC3 | Englisch AC3
Laufzeit: 1h 41mn
Bitrate: 2 302 Kbps
Format: MKV
Größe: 1.63 GiB
Release:

Beschreibung:

In Roman Polanskis fesselndem Psychothriller geraten die französischen Charakterdarstellerinnen Emmanuelle Seigner und Eva Green in ein hintersinniges Spiel um Wahrheit und Fiktion.Seit ihr sehr persönlicher Roman über ihre Mutter zu einem Bestseller wurde, leidet die Pariser Autorin Delphine (Emmanuelle Seigner) an einer Schreibblockade. Die endlosen Lesetouren, Signierstunden und vereinzelte Drohbriefe setzen ihr zu. Doch als sie die attraktive Elle (Eva Green) trifft, ändert sich das. Schnell fasst Delphine Vertrauen zu der geheimnisvollen Frau, die als Ghostwriter ihr Geld verdient. Selbstlos übernimmt Elle immer mehr Aufgaben für Delphine, beantwortet Mails und zieht sogar bei ihr ein. Als Delphine schließlich feststellt, dass ihr die Kontrolle entgleitet, muss sie sich fragen: Wer ist Elle wirklich? Will sie Delphines Leere füllen oder stiehlt sie ihr das Leben?



Complete name                            : Nach.einer.wahren.Geschichte.x265.mkv
Format                                   : Matroska
Format version                           : Version 4 / Version 2
File size                                : 1.63 GiB
Duration                                 : 1h 41mn
Overall bit rate                         : 2 302 Kbps
Encoded date                             : UTC 2018-10-12 18:12:43
Writing application                      : mkvmerge v10.0.0 ('To Drown In You') 64bit
Writing library                          : libebml v1.3.4 + libmatroska v1.4.5
DURATION                                 : 01:34:47.303000000
NUMBER_OF_FRAMES                         : 1163
NUMBER_OF_BYTES                          : 3032859
_STATISTICS_WRITING_APP                  : mkvmerge v10.0.0 ('To Drown In You') 64bit
_STATISTICS_WRITING_DATE_UTC             : 2018-10-12 18:12:43
_STATISTICS_TAGS                         : BPS DURATION NUMBER_OF_FRAMES NUMBER_OF_BYTES

Video
ID                                       : 1
Format                                   : HEVC
Format/Info                              : High Efficiency Video Coding
Format profile                           : Main@L4.0
Codec ID                                 : V_MPEGH/ISO/HEVC
Duration                                 : 1h 41mn
Bit rate                                 : 1 489 Kbps
Width                                    : 1 920 pixels
Height                                   : 800 pixels
Display aspect ratio                     : 2.40:1
Frame rate mode                          : Constant
Frame rate                               : 23.976 fps
Color space                              : YUV
Chroma subsampling                       : 4:2:0
Bit depth                                : 8 bits
Bits/(Pixel*Frame)                       : 0.040
Stream size                              : 1.05 GiB (65%)
Writing library                          : x265 2.8:[Windows][GCC 7.1.0][64 bit] 8bit+10bit+12bit
Encoding settings                        : cpuid=1111039 / frame-threads=3 / numa-pools=8 / wpp / no-pmode / no-pme / no-psnr / no-ssim / log-level=2 / input-csp=1 / input-res=1920x800 / interlace=0 / total-frames=0 / level-idc=0 / high-tier=1 / uhd-bd=0 / ref=3 / no-allow-non-conformance / no-repeat-headers / annexb / no-aud / no-hrd / info / hash=0 / no-temporal-layers / open-gop / min-keyint=24 / keyint=240 / gop-lookahead=0 / bframes=4 / b-adapt=2 / b-pyramid / bframe-bias=0 / rc-lookahead=20 / lookahead-slices=5 / scenecut=40 / radl=0 / no-intra-refresh / ctu=64 / min-cu-size=8 / no-rect / no-amp / max-tu-size=32 / tu-inter-depth=1 / tu-intra-depth=1 / limit-tu=0 / rdoq-level=0 / dynamic-rd=0.00 / no-ssim-rd / signhide / no-tskip / nr-intra=0 / nr-inter=0 / no-constrained-intra / no-strong-intra-smoothing / max-merge=2 / limit-refs=3 / no-limit-modes / me=1 / subme=2 / merange=57 / temporal-mvp / weightp / no-weightb / no-analyze-src-pics / deblock=0:0 / no-sao / no-sao-non-deblock / rd=3 / no-early-skip / rskip / no-fast-intra / no-tskip-fast / no-cu-lossless / no-b-intra / no-splitrd-skip / rdpenalty=0 / psy-rd=2.00 / psy-rdoq=0.00 / no-rd-refine / no-lossless / cbqpoffs=0 / crqpoffs=0 / rc=crf / crf=20.0 / qcomp=0.60 / qpstep=4 / stats-write=0 / stats-read=0 / ipratio=1.40 / pbratio=1.30 / aq-mode=1 / aq-strength=1.00 / cutree / zone-count=0 / no-strict-cbr / qg-size=32 / no-rc-grain / qpmax=69 / qpmin=0 / no-const-vbv / sar=1 / overscan=0 / videoformat=5 / range=0 / colorprim=1 / transfer=1 / colormatrix=1 / chromaloc=0 / display-window=0 / max-cll=0,0 / min-luma=0 / max-luma=255 / log2-max-poc-lsb=8 / vui-timing-info / vui-hrd-info / slices=1 / no-opt-qp-pps / no-opt-ref-list-length-pps / no-multi-pass-opt-rps / scenecut-bias=0.05 / no-opt-cu-delta-qp / no-aq-motion / no-hdr / no-hdr-opt / no-dhdr10-opt / no-idr-recovery-sei / analysis-reuse-level=5 / scale-factor=0 / refine-intra=0 / refine-inter=0 / refine-mv=0 / no-limit-sao / ctu-info=0 / no-lowpass-dct / refine-mv-type=0 / copy-pic=1 / max-ausize-factor=1.0 / no-dynamic-refine / no-single-sei
Default                                  : Yes
Forced                                   : No
DURATION                                 : 01:41:05.184000000
NUMBER_OF_FRAMES                         : 145419
NUMBER_OF_BYTES                          : 1158686335
_STATISTICS_WRITING_APP                  : mkvmerge v10.0.0 ('To Drown In You') 64bit
_STATISTICS_WRITING_DATE_UTC             : 2018-10-12 18:12:43
_STATISTICS_TAGS                         : BPS DURATION NUMBER_OF_FRAMES NUMBER_OF_BYTES

Audio #1
ID                                       : 2
Format                                   : AC-3
Format/Info                              : Audio Coding 3
Mode extension                           : CM (complete main)
Format settings, Endianness              : Big
Codec ID                                 : A_AC3
Duration                                 : 1h 41mn
Bit rate mode                            : Constant
Bit rate                                 : 384 Kbps
Channel(s)                               : 6 channels
Channel positions                        : Front: L C R, Side: L R, LFE
Sampling rate                            : 48.0 KHz
Bit depth                                : 16 bits
Compression mode                         : Lossy
Delay relative to video                  : -5ms
Stream size                              : 278 MiB (17%)
Title                                    : Surround
Language                                 : German
Default                                  : Yes
Forced                                   : No
DURATION                                 : 01:41:05.184000000
NUMBER_OF_FRAMES                         : 189537
NUMBER_OF_BYTES                          : 291128832
_STATISTICS_WRITING_APP                  : mkvmerge v10.0.0 ('To Drown In You') 64bit
_STATISTICS_WRITING_DATE_UTC             : 2018-10-12 18:12:43
_STATISTICS_TAGS                         : BPS DURATION NUMBER_OF_FRAMES NUMBER_OF_BYTES

Audio #2
ID                                       : 3
Format                                   : AC-3
Format/Info                              : Audio Coding 3
Mode extension                           : CM (complete main)
Format settings, Endianness              : Big
Codec ID                                 : A_AC3
Duration                                 : 1h 41mn
Bit rate mode                            : Constant
Bit rate                                 : 384 Kbps
Channel(s)                               : 6 channels
Channel positions                        : Front: L C R, Side: L R, LFE
Sampling rate                            : 48.0 KHz
Bit depth                                : 16 bits
Compression mode                         : Lossy
Delay relative to video                  : -5ms
Stream size                              : 278 MiB (17%)
Title                                    : Surround
Language                                 : English
Default                                  : No
Forced                                   : No
DURATION                                 : 01:41:05.184000000
NUMBER_OF_FRAMES                         : 189537
NUMBER_OF_BYTES                          : 291128832
_STATISTICS_WRITING_APP                  : mkvmerge v10.0.0 ('To Drown In You') 64bit
_STATISTICS_WRITING_DATE_UTC             : 2018-10-12 18:12:43
_STATISTICS_TAGS                         : BPS DURATION NUMBER_OF_FRAMES NUMBER_OF_BYTES


Download:
Share Online Share OnlineShare OnlineShare Online
 

Kommentare