Filecrypt zeigt vereinzelt Files als "n/a". Die Downloads sind trotzdem komplett.

DNS SERVER AENDERNum der staatlichen Zensur zu umgehen. Sollten wir von eurem Provider geseprrt werden, nutzt den TOR BROWSER oder ändert euren DNS SERVER.

Filmwünsche können bei uns im Forum abgegeben werden

Wir Speichern Nicht




 
 
 
Top Releases
Ant-Man.And.The.Wasp.2018.CO...
Feinde.Hostiles.2017.German....
Journeyman.2017.German.AC3.D...
Errementari.Der.Schmied.und....
Errementari.Der.Schmied.und....
Apostle.2018.German.DL.720p....
Apostle.2018.German.DL.1080p...
Wohne.lieber.ungewoehnlich.2...
The.Incredible.Jessica.James...
Wohne.lieber.ungewoehnlich.2...

Cinedubs
Searching.2018.German.AC3MD....
Searching.2018.German.AC3MD....
211.Cops.Under.Fire.2018.Ger...
211.Cops.Under.Fire.2018.Ger...
MEG.Biss.bald.2018.German.AC...
MEG.Biss.bald.2018.German.AC...
Mamma.Mia.2.Here.We.Go.Again...
Mamma.Mia.2.Here.We.Go.Again...
Ant-Man.and.the.Wasp.2018.Ge...
Ant-Man.and.the.Wasp.2018.Ge...

Neuerscheinungen 2017-18
The.Watcher.Willkommen.im.Mo...
The.Watcher.Willkommen.im.Mo...
The.Darkest.Minds.Die.Ueberl...
The.Darkest.Minds.Die.Ueberl...
6.Headed.Shark.Attack.Dont.m...
6.Headed.Shark.Attack.Dont.m...
Stratton.2017.German.AC3.DL....
Muse.2017.German.DL.1080p.Bl...
Hangman.The.Killing.Game.201...
Street.Justice.Rache.kennt.k...

XXX
BlackedRaw.18.10.04.Kissa.Si...
WankItNow.17.11.17.Kate.Anne...
BreakingAsses.18.10.04.Ashle...
LezCuties.18.10.05.Nesty.Gin...
BigTitsRoundAsses.18.10.04.K...
MistressT.18.02.01.Spit.Roas...
BigTitsAtWork.18.10.03.Valen...
Penthouse.Sinful.Deeds.And.D...
MistressT.18.08.08.Specific....
PureCFNM.18.10.05.Diverse.St...
InTheCrack.E1455.Mia.Evans.X...
WankItNow.18.09.20.Jess.West...
MistressT.18.02.16.Femdom.Ru...
WankItNow.18.09.19.Lucy.Alex...
DigitalPlayground.18.10.01.M...
PlumperPass.18.10.01.Kendra....
ATKGirlfriends.18.10.02.Gia....
NuruMassage.18.10.03.Judy.Jo...
MyFriendsHotMom.18.10.04.Nin...
PureTaboo.18.10.04.Adriana.C...

3D
Jurassic.World.Das.gefallene...
Jurassic.World.Das.gefallene...
Best.of.3D.vol.10.-.12.GERMA...
Die.Biene.Maja.2.Die.Honigsp...
Sharknado.6.The.Last.One.3D....
Solo.A.Star.Wars.Story.3D.20...
Solo.A.Star.Wars.Story.3D.20...
Die.Biene.Maja.2.Die.Honigsp...
Avengers.Infinity.War.3D.201...
Avengers.Infinity.War.3D.201...
Rampage.Big.Meets.Bigger.3D....
Rampage.Big.Meets.Bigger.3D....
Rampage.Big.Meets.Bigger.3D....
Winter.Games.3D.2013.DUAL.CO...
Tomb.Raider.3D.2018.German.7...

Old_Stuff
Britney.Spears.Live.The.Femm...
Buffy.The.Vampire.Slayer.199...
IMAX.Ride.Around.The.World.2...
Schimanski.-.Duisburg.Ruhror...
Akte.X.S02.German.DTS.DL.108...
How.I.Met.Your.Mother.S02.Ge...
Akte.X.S01.German.DTS.DL.108...
Den.Himmel.gibts.echt.DL.108...
Vikings.S02.German.DL.1080p....
Be.Kind.Rewind.Abgedreht.200...
Be.Kind.Rewind.Abgedreht.200...
Dracula.The.Dark.Lord.2012.G...
21.2008.German.DL.1080p.BluR...
Achtung.fertig.WK.Swissgerma...
The.Ouija.Exorcism.2015.MULT...

Filme
Tootsie.1982.German.AC3D.DL....
Voll.verkatert.2016.German.A...
Ein.ganz.verrueckter.Freitag...
Man.Eaters.Leichenhaus.des.G...
Ein.Vogel.auf.dem.Drahtseil....
Mission.Impossible.III.2006....
The.Purge.S01.German.DD+51.D...
The.Purge.S01.German.DD+51.D...
Upside.Down.2012.German.AC3....
Street.Fighter.Die.entscheid...
Vijay.und.ich.Meine.Frau.geh...
Journeyman.2016.German.DTS.D...
Atrocious.2010.German.1080p....
Attack.from.the.Atlantic.Rim...
Fightworld.S01.Complete.Germ...
Spuk.in.Hill.House.S01.COMPL...
Spuk.in.Hill.House.S01.COMPL...
Humans.S03.German.DD20.Dubbe...
iZombie.S04.German.DD51.Dubb...
iZombie.S04.German.DD51.Dubb...
Haensel.und.Gretel.Hexenjaeg...
Juan.of.the.Dead.2011.German...
Jurassic.Park.3.2001.German....
Schrei.in.der.Stille.1990.72...

 
 
The.Darkest.Minds.Die.Ueberlebenden.German.DL.AC3.Dubbed.720p.WEB.h264-PsO

Jahr: 2018
Genre: Sci-Fi | Thriller
Sprache: Deutsch AC3 | Englisch AC3
Laufzeit: 1h 44mn
Bitrate: 5 009 Kbps
Format: MKV
Größe: 3.66 GiB
Release:

Beschreibung:

Ein paar Jahre in der Zukunft: In den USA sterben fast alle Kinder und Teenager. Die wenigen Überlebenden haben plötzlich mächtige Kräfte – und keiner weiß, warum. Sie können Menschen manipulieren, Gedanken lesen oder Gegenstände per Gedankenkraft bewegen. Die Regierung reagiert hilflos: Sie erklärt die Mädchen und Jungen zur Bedrohung und lässt sie wegsperren, auf dass sie niemandem gefährlich werden können. Eine der inhaftierten Teenager ist die sechzehnjährige Ruby (Amandla Stenberg), ihre Kräfte sind so stark ausgeprägt wie von fast keinem anderen. Sie flieht aus dem Camp und trifft draußen auf andere junge Leute, die durchgebrannt sind und nach einem Ort suchen, an dem sie Schutz haben. Gemeinsam stellen Ruby, Liam (Harris Dickinson), Chubs (Skylan Brooks) und Zu (Miya Cech) bald fest, dass ihre Flucht vergeblich sein wird, solange sie das Grundproblem nicht gelöst haben. Sie wurden von mächtigen Erwachsenen betrogen – und müssen den Kampf gegen sie aufnehmen…



Complete name                            : pso-darkestminds_web.720p.mkv
Format                                   : Matroska
Format version                           : Version 4 / Version 2
File size                                : 3.66 GiB
Duration                                 : 1h 44mn
Overall bit rate                         : 5 009 Kbps
Encoded date                             : UTC 2018-10-12 21:16:02
Writing application                      : mkvmerge v8.3.0 ('Over the Horizon') 64bit
Writing library                          : libebml v1.3.1 + libmatroska v1.4.2
DURATION                                 : 00:25:12.914000000
NUMBER_OF_FRAMES                         : 6
NUMBER_OF_BYTES                          : 142
_STATISTICS_WRITING_APP                  : mkvmerge v8.3.0 ('Over the Horizon') 64bit
_STATISTICS_WRITING_DATE_UTC             : 2018-10-12 21:16:02
_STATISTICS_TAGS                         : BPS DURATION NUMBER_OF_FRAMES NUMBER_OF_BYTES

Video
ID                                       : 1
Format                                   : AVC
Format/Info                              : Advanced Video Codec
Format profile                           : Main@L3.1
Format settings, CABAC                   : No
Format settings, ReFrames                : 2 frames
Codec ID                                 : V_MPEG4/ISO/AVC
Duration                                 : 1h 44mn
Bit rate                                 : 3 885 Kbps
Width                                    : 1 280 pixels
Height                                   : 536 pixels
Display aspect ratio                     : 2.40:1
Frame rate mode                          : Constant
Frame rate                               : 23.976 fps
Color space                              : YUV
Chroma subsampling                       : 4:2:0
Bit depth                                : 8 bits
Scan type                                : Progressive
Bits/(Pixel*Frame)                       : 0.236
Stream size                              : 2.84 GiB (78%)
Language                                 : English
Default                                  : Yes
Forced                                   : No
Color primaries                          : BT.709
Transfer characteristics                 : BT.709
Matrix coefficients                      : BT.709

Audio #1
ID                                       : 2
Format                                   : AC-3
Format/Info                              : Audio Coding 3
Mode extension                           : CM (complete main)
Format settings, Endianness              : Big
Codec ID                                 : A_AC3
Duration                                 : 1h 44mn
Bit rate mode                            : Constant
Bit rate                                 : 640 Kbps
Channel(s)                               : 6 channels
Channel positions                        : Front: L C R, Side: L R, LFE
Sampling rate                            : 48.0 KHz
Bit depth                                : 16 bits
Compression mode                         : Lossy
Delay relative to video                  : 3s 377ms
Stream size                              : 478 MiB (13%)
Language                                 : German
Default                                  : Yes
Forced                                   : Yes
DURATION                                 : 01:44:10.510000000
NUMBER_OF_FRAMES                         : 195327
NUMBER_OF_BYTES                          : 500037120
_STATISTICS_WRITING_APP                  : mkvmerge v8.3.0 ('Over the Horizon') 64bit
_STATISTICS_WRITING_DATE_UTC             : 2018-10-12 21:16:02
_STATISTICS_TAGS                         : BPS DURATION NUMBER_OF_FRAMES NUMBER_OF_BYTES

Audio #2
ID                                       : 3
Format                                   : AC-3
Format/Info                              : Audio Coding 3
Mode extension                           : CM (complete main)
Format settings, Endianness              : Big
Codec ID                                 : A_AC3
Duration                                 : 1h 44mn
Bit rate mode                            : Constant
Bit rate                                 : 384 Kbps
Channel(s)                               : 6 channels
Channel positions                        : Front: L C R, Side: L R, LFE
Sampling rate                            : 48.0 KHz
Bit depth                                : 16 bits
Compression mode                         : Lossy
Delay relative to video                  : -43ms
Stream size                              : 287 MiB (8%)
Language                                 : English
Default                                  : No
Forced                                   : No

Text
ID                                       : 4
Format                                   : UTF-8
Codec ID                                 : S_TEXT/UTF8
Codec ID/Info                            : UTF-8 Plain Text
Title                                    : forced
Language                                 : German
Default                                  : Yes
Forced                                   : Yes


Download:
Share Online Share OnlineShare OnlineShare Online
 

Kommentare