Filecrypt zeigt vereinzelt Files als "n/a". Die Downloads sind trotzdem komplett.

DNS SERVER AENDERNum der staatlichen Zensur zu umgehen. Sollten wir von eurem Provider geseprrt werden, nutzt den TOR BROWSER oder ändert euren DNS SERVER.

Filmwünsche können bei uns im Forum abgegeben werden

Wir Speichern Nicht




 
 
 
Top Releases
Feinde.Hostiles.2017.German....
Journeyman.2017.German.AC3.D...
Errementari.Der.Schmied.und....
Errementari.Der.Schmied.und....
Apostle.2018.German.DL.720p....
Apostle.2018.German.DL.1080p...
Wohne.lieber.ungewoehnlich.2...
The.Incredible.Jessica.James...
Wohne.lieber.ungewoehnlich.2...
Brawl.in.Cell.Block.99.UNCUT...

Cinedubs
Searching.2018.German.AC3MD....
Searching.2018.German.AC3MD....
211.Cops.Under.Fire.2018.Ger...
211.Cops.Under.Fire.2018.Ger...
MEG.Biss.bald.2018.German.AC...
MEG.Biss.bald.2018.German.AC...
Mamma.Mia.2.Here.We.Go.Again...
Mamma.Mia.2.Here.We.Go.Again...
Ant-Man.and.the.Wasp.2018.Ge...
Ant-Man.and.the.Wasp.2018.Ge...

Neuerscheinungen 2017-18
The.Watcher.Willkommen.im.Mo...
The.Watcher.Willkommen.im.Mo...
The.Darkest.Minds.Die.Ueberl...
The.Darkest.Minds.Die.Ueberl...
6.Headed.Shark.Attack.Dont.m...
6.Headed.Shark.Attack.Dont.m...
Stratton.2017.German.AC3.DL....
Muse.2017.German.DL.1080p.Bl...
Hangman.The.Killing.Game.201...
Street.Justice.Rache.kennt.k...

XXX
BlackedRaw.18.10.04.Kissa.Si...
WankItNow.17.11.17.Kate.Anne...
BreakingAsses.18.10.04.Ashle...
LezCuties.18.10.05.Nesty.Gin...
BigTitsRoundAsses.18.10.04.K...
MistressT.18.02.01.Spit.Roas...
BigTitsAtWork.18.10.03.Valen...
Penthouse.Sinful.Deeds.And.D...
MistressT.18.08.08.Specific....
PureCFNM.18.10.05.Diverse.St...
InTheCrack.E1455.Mia.Evans.X...
WankItNow.18.09.20.Jess.West...
MistressT.18.02.16.Femdom.Ru...
WankItNow.18.09.19.Lucy.Alex...
DigitalPlayground.18.10.01.M...
PlumperPass.18.10.01.Kendra....
ATKGirlfriends.18.10.02.Gia....
NuruMassage.18.10.03.Judy.Jo...
MyFriendsHotMom.18.10.04.Nin...
PureTaboo.18.10.04.Adriana.C...

3D
Jurassic.World.Das.gefallene...
Jurassic.World.Das.gefallene...
Best.of.3D.vol.10.-.12.GERMA...
Die.Biene.Maja.2.Die.Honigsp...
Sharknado.6.The.Last.One.3D....
Solo.A.Star.Wars.Story.3D.20...
Solo.A.Star.Wars.Story.3D.20...
Die.Biene.Maja.2.Die.Honigsp...
Avengers.Infinity.War.3D.201...
Avengers.Infinity.War.3D.201...
Rampage.Big.Meets.Bigger.3D....
Rampage.Big.Meets.Bigger.3D....
Rampage.Big.Meets.Bigger.3D....
Winter.Games.3D.2013.DUAL.CO...
Tomb.Raider.3D.2018.German.7...

Old_Stuff
Britney.Spears.Live.The.Femm...
Buffy.The.Vampire.Slayer.199...
IMAX.Ride.Around.The.World.2...
Schimanski.-.Duisburg.Ruhror...
Akte.X.S02.German.DTS.DL.108...
How.I.Met.Your.Mother.S02.Ge...
Akte.X.S01.German.DTS.DL.108...
Den.Himmel.gibts.echt.DL.108...
Vikings.S02.German.DL.1080p....
Be.Kind.Rewind.Abgedreht.200...
Be.Kind.Rewind.Abgedreht.200...
Dracula.The.Dark.Lord.2012.G...
21.2008.German.DL.1080p.BluR...
Achtung.fertig.WK.Swissgerma...
The.Ouija.Exorcism.2015.MULT...

Filme
Tootsie.1982.German.AC3D.DL....
Voll.verkatert.2016.German.A...
Ein.ganz.verrueckter.Freitag...
Man.Eaters.Leichenhaus.des.G...
Ein.Vogel.auf.dem.Drahtseil....
Mission.Impossible.III.2006....
The.Purge.S01.German.DD+51.D...
The.Purge.S01.German.DD+51.D...
Upside.Down.2012.German.AC3....
Street.Fighter.Die.entscheid...
Vijay.und.ich.Meine.Frau.geh...
Journeyman.2016.German.DTS.D...
Atrocious.2010.German.1080p....
Attack.from.the.Atlantic.Rim...
Fightworld.S01.Complete.Germ...
Spuk.in.Hill.House.S01.COMPL...
Spuk.in.Hill.House.S01.COMPL...
Humans.S03.German.DD20.Dubbe...
iZombie.S04.German.DD51.Dubb...
iZombie.S04.German.DD51.Dubb...
Haensel.und.Gretel.Hexenjaeg...
Juan.of.the.Dead.2011.German...
Jurassic.Park.3.2001.German....
Schrei.in.der.Stille.1990.72...

 
 
Tootsie.1982.German.AC3D.DL.1080p.CC.US-BluRay.x265-FuN

Jahr: 1982
Genre: Drama, Komödie
Sprache: Deutsch AC3 | Englisch AC3
Laufzeit: 1h 57mn
Bitrate: 3 515 Kbps
Format: MKV
Größe: 2.88 GiB
Release:

Beschreibung:

Michael Dorsey ist ein guter aber unbekannter Schauspieler in New York. Unter dem Namen “Dorothy Michaels” bekommt er schließlich eine Rolle in einer großen Fernsehserie und wird als Frau berühmt. Als “Tootsie” ist er bei seinen Kollegen anerkannt und beliebt. Aber nun fangen seine Schwierigkeiten erst richtig an: Er – “Dorothy” – verliebt sich in seine Partnerin Julie! Julies Vater und auch der Hauptdarsteller der Serie verlieben sich wiederum in ihn – “Tootsie”. Wie wird Michael Dorsey “Dorothy Michaels” wieder los?



Complete name                            : Tootsie.x265.mkv
Format                                   : Matroska
Format version                           : Version 4 / Version 2
File size                                : 2.88 GiB
Duration                                 : 1h 57mn
Overall bit rate                         : 3 515 Kbps
Movie name                               : Tootsie.1982.German.AC3D.1080p.CC.US.BD.Remux-marban
Encoded date                             : UTC 2018-04-30 10:35:55
Writing application                      : mkvmerge v20.0.0 ('I Am The Sun') 64-bit
Writing library                          : libebml v1.3.5 + libmatroska v1.4.8
DURATION                                 : 01:46:06.819000000
NUMBER_OF_FRAMES                         : 7
NUMBER_OF_BYTES                          : 179
_STATISTICS_WRITING_APP                  : mkvmerge v20.0.0 ('I Am The Sun') 64-bit
_STATISTICS_WRITING_DATE_UTC             : 2018-04-30 10:35:55
_STATISTICS_TAGS                         : BPS DURATION NUMBER_OF_FRAMES NUMBER_OF_BYTES

Video
ID                                       : 1
Format                                   : HEVC
Format/Info                              : High Efficiency Video Coding
Format profile                           : Main@L4.0
Codec ID                                 : V_MPEGH/ISO/HEVC
Duration                                 : 1h 57mn
Bit rate                                 : 2 869 Kbps
Width                                    : 1 920 pixels
Height                                   : 800 pixels
Display aspect ratio                     : 2.40:1
Frame rate mode                          : Constant
Frame rate                               : 23.976 fps
Color space                              : YUV
Chroma subsampling                       : 4:2:0
Bit depth                                : 8 bits
Bits/(Pixel*Frame)                       : 0.078
Stream size                              : 2.35 GiB (82%)
Writing library                          : x265 2.1:[Windows][GCC 5.3.1][64 bit] 8bit
Encoding settings                        : wpp / ctu=64 / min-cu-size=8 / max-tu-size=32 / tu-intra-depth=1 / tu-inter-depth=1 / me=1 / subme=2 / merange=57 / no-rect / no-amp / max-merge=2 / temporal-mvp / no-early-skip / rskip / rdpenalty=0 / no-tskip / no-tskip-fast / strong-intra-smoothing / no-lossless / no-cu-lossless / no-constrained-intra / fast-intra / open-gop / no-temporal-layers / interlace=0 / keyint=240 / min-keyint=24 / scenecut=40 / rc-lookahead=15 / lookahead-slices=5 / bframes=4 / bframe-bias=0 / b-adapt=0 / ref=3 / limit-refs=3 / no-limit-modes / weightp / no-weightb / aq-mode=1 / qg-size=32 / aq-strength=1.00 / cbqpoffs=0 / crqpoffs=0 / rd=2 / psy-rd=2.00 / rdoq-level=0 / psy-rdoq=0.00 / log2-max-poc-lsb=8 / no-rd-refine / signhide / deblock=0:0 / sao / no-sao-non-deblock / b-pyramid / cutree / no-intra-refresh / rc=crf / crf=22.0 / qcomp=0.60 / qpmin=0 / qpmax=69 / qpstep=4 / ipratio=1.40 / pbratio=1.30
Default                                  : Yes
Forced                                   : No
DURATION                                 : 01:57:19.700000000
NUMBER_OF_FRAMES                         : 168784
NUMBER_OF_BYTES                          : 2558753223
_STATISTICS_WRITING_APP                  : mkvmerge v20.0.0 ('I Am The Sun') 64-bit
_STATISTICS_WRITING_DATE_UTC             : 2018-04-30 10:35:55
_STATISTICS_TAGS                         : BPS DURATION NUMBER_OF_FRAMES NUMBER_OF_BYTES

Audio #1
ID                                       : 2
Format                                   : AC-3
Format/Info                              : Audio Coding 3
Mode extension                           : CM (complete main)
Format settings, Endianness              : Big
Codec ID                                 : A_AC3
Duration                                 : 1h 57mn
Bit rate mode                            : Constant
Bit rate                                 : 192 Kbps
Channel(s)                               : 2 channels
Channel positions                        : Front: L R
Sampling rate                            : 48.0 KHz
Bit depth                                : 16 bits
Compression mode                         : Lossy
Delay relative to video                  : 11s 795ms
Stream size                              : 161 MiB (5%)
Title                                    : Stereo
Language                                 : German
Default                                  : Yes
Forced                                   : No
DURATION                                 : 01:56:21.952000000
NUMBER_OF_FRAMES                         : 218186
NUMBER_OF_BYTES                          : 167566848
_STATISTICS_WRITING_APP                  : mkvmerge v20.0.0 ('I Am The Sun') 64-bit
_STATISTICS_WRITING_DATE_UTC             : 2018-04-30 10:35:55
_STATISTICS_TAGS                         : BPS DURATION NUMBER_OF_FRAMES NUMBER_OF_BYTES

Audio #2
ID                                       : 3
Format                                   : AC-3
Format/Info                              : Audio Coding 3
Mode extension                           : CM (complete main)
Format settings, Endianness              : Big
Codec ID                                 : A_AC3
Duration                                 : 1h 57mn
Bit rate mode                            : Constant
Bit rate                                 : 384 Kbps
Channel(s)                               : 6 channels
Channel positions                        : Front: L C R, Side: L R, LFE
Sampling rate                            : 48.0 KHz
Bit depth                                : 16 bits
Compression mode                         : Lossy
Delay relative to video                  : 11s 795ms
Stream size                              : 322 MiB (11%)
Title                                    : Surround
Language                                 : English
Default                                  : No
Forced                                   : No
DURATION                                 : 01:56:21.952000000
NUMBER_OF_FRAMES                         : 218186
NUMBER_OF_BYTES                          : 335133696
_STATISTICS_WRITING_APP                  : mkvmerge v20.0.0 ('I Am The Sun') 64-bit
_STATISTICS_WRITING_DATE_UTC             : 2018-04-30 10:35:55
_STATISTICS_TAGS                         : BPS DURATION NUMBER_O


Download:
Share Online Share OnlineShare OnlineShare Online
 

Kommentare