DNS SERVER AENDERNum der staatlichen Zensur zu umgehen. Sollten wir von eurem Provider geseprrt werden, nutzt den TOR BROWSER oder ändert euren DNS SERVER.

Filmwünsche können bei uns im Forum abgegeben werden

Wir Speichern Nicht




 
 
 
Top Releases
Jurassic.World.2.Das.gefalle...
Jurassic.World.2.Das.gefalle...
Racer.and.the.Jailbird.2017....
Racer.and.the.Jailbird.2017....
Racer.and.the.Jailbird.2017....
The.Girl.on.Train.2016.PROPE...
Solo.A.Star.Wars.Story.2018....
Solo.A.Star.Wars.Story.2018....
Solo.A.Star.Wars.Story.2018....
Outrage.Coda.GERMAN.2017.DL....

Cinedubs
Sicario.2.2018.German.AC3.DL...
Sicario.2.2018.German.AC3.DL...
No.Way.Out.Gegen.die.Flammen...
No.Way.Out.Gegen.die.Flammen...
The.First.Purge.German.DL.AC...
The.First.Purge.German.DL.AC...
Hotel.Transsilvanien.3.Ein.M...
Hotel.Transsilvanien.3.Ein.M...
Meg.German.DL.AC3.Dubbed.720...
Meg.German.DL.AC3.Dubbed.108...

Neuerscheinungen 2017-18
Steig.Nicht.Aus.2018.German....
Steig.Nicht.Aus.2018.German....
Triassic.World.2018.German.7...
Triassic.World.2018.German.D...
Steig.Nicht.Aus.2018.GERMAN....
Triassic.World.2018.MULTi.CO...
Anne.Clark.I.Will.Walk.Out.I...
Decommissioned.Anschlag.auf....
Decommissioned.Anschlag.auf....
Hes.Out.There.2018.GERMAN.DL...

XXX
LoveHerFeet.18.09.07.Emily.W...
IKnowThatGirl.18.09.09.Eliza...
Lustery.E135.Asteria.And.Uly...
I.Fucked.Your.Step.Father.9....
KarupsOW.18.09.07.Victoria.P...
KimberLeeLive.18.08.24.Crave...
KarupsHA.18.09.10.Lenna.Lux....
KimberLeeLive.18.09.07.Ashly...
Hustler.18.09.09.Vanessa.Sky...
LezCuties.18.09.07.Zazie.Sky...
JulesJordan.18.09.10.Angela....
Lesbea.18.09.09.Emylia.Argan...
JimSlip.18.09.07.Mia.Evans.S...
LoneMilf.18.09.05.Pristine.E...
KarupsHA.18.09.08.Bailey.Blu...
LethalHardcore.Little.White....
Latin.Amateurs.Watch.Me.Bang...
InTheCrack.E1447.Daisy.Stone...
LethalHardcore.Little.White....
MILF.Private.Fantasies.4.XXX...

3D
Solo.A.Star.Wars.Story.3D.20...
Solo.A.Star.Wars.Story.3D.20...
Die.Biene.Maja.2.Die.Honigsp...
Avengers.Infinity.War.3D.201...
Avengers.Infinity.War.3D.201...
Rampage.Big.Meets.Bigger.3D....
Rampage.Big.Meets.Bigger.3D....
Rampage.Big.Meets.Bigger.3D....
Winter.Games.3D.2013.DUAL.CO...
Tomb.Raider.3D.2018.German.7...
Rampage.Big.Meets.Bigger.3D....
Rampage.Big.Meets.Bigger.3D....
Tomb.Raider.3D.2018.MULTi.CO...
Pacific.Rim.Uprising.3D.2018...
Ready.Player.One.3D.2018.Ger...

Old_Stuff
How.I.Met.Your.Mother.S02.Ge...
Akte.X.S01.German.DTS.DL.108...
Den.Himmel.gibts.echt.DL.108...
Vikings.S02.German.DL.1080p....
Be.Kind.Rewind.Abgedreht.200...
Be.Kind.Rewind.Abgedreht.200...
Dracula.The.Dark.Lord.2012.G...
21.2008.German.DL.1080p.BluR...
Achtung.fertig.WK.Swissgerma...
The.Ouija.Exorcism.2015.MULT...
Meine.liebe.Rabenmutter.germ...
Da.Vincis.Demons.S01.Complet...
Eragon.Das.Vermaechtnis.der....
Adele.und.das.Geheimnis.des....
Die.fabelhafte.Welt.der.Amel...

Filme
Fühlen.Sie.sich.manchmal.au...
The.Last.Man.On.Earth.S04.Ge...
The.Last.Man.On.Earth.S04.Ge...
eXistenZ.GERMAN.1999.DL.1080...
eXistenZ.GERMAN.1999.DL.720p...
Snowfall.S02.GERMAN.DUBBED.7...
Ballers.S04.GERMAN.DUBBED.DL...
Ballers.S04.GERMAN.DUBBED.DL...
The.Handmaids.Tale.S02.Germa...
The.Handmaids.Tale.S02.Germa...
Mr.Mercedes.S02.German.DD+51...
Mr.Mercedes.S02.German.DD+51...
Greys.Anatomy.S14.German.Dub...
The.Deuce.S02.GERMAN.DL.1080...
The.Deuce.S02.GERMAN.DL.720p...
Mein.Mann.Godfrey.1936.Germa...
Ignatius.von.Loyola.2016.GER...
Good.Burger.Die.total.verrue...
Jack.und.Sarah.1995.German.D...
Batman.Assault.on.Arkham.201...
Jenny.aka.Jennie.-.Das.Portr...
Casino.Undercover.2017.Germa...
In.Northwood.2011.GERMAN.AC3...
Licht.im.Dunkel.1962.German....

 
 
Sicario.2.2018.German.AC3.DL.MiC.DUBBED.1080p.BluRay.x264-CiNEDOME

Jahr: 2018
Genre: Thriller, Action
Sprache: Deutsch AC3 | Englisch DTS
Laufzeit: 2h 2mn
Bitrate: 11.7 Mbps
Format: MKV
Größe: 10.0 GiB
Release:

Beschreibung:
Zwei Jahre nach ihrem letzten Einsatz sind FBI-Agent Matt Graver (Josh Brolin) und Auftragskiller Alejandro Gillick (Benicio Del Toro) erneut an der amerikanisch-mexikanischen Grenze unterwegs. Dort herrscht mittlerweile vollkommener Ausnahmezustand. Terroristen schleusen ihre Anhänger massenweise unbemerkt in die USA, wo diese blutige Anschläge verüben. Als ein Selbstmordattentäter in einem Kaufhaus zahlreiche Zivilisten ermordet, soll Alejandro einschreiten. Für Matt soll er einen Krieg zwischen den verschiedenen Drogenkartellen vom Zaun brechen. Um das zu erreichen, will er Isabela (Isabela Moner) entführen, die Tochter des Kartellbosses und Terroristenschleusers Carlos Reyes. Außerdem hat Alejandro noch eine private Rechnung mit Reyes offen, die er in der Gunst der Stunde begleichen will...
Video: 1920 x 800 @ 4,9 Mbps
Audio1: German AC3 2.0 @ 192 kbps (Mic)
Audio2: English E-AC3 5.1 @ 640 kbps
Subs: German Forced, English Full


Complete name                            : cd-sic2-1080.mkv
Format                                   : Matroska
Format version                           : Version 2
File size                                : 10.0 GiB
Duration                                 : 2h 2mn
Overall bit rate                         : 11.7 Mbps
Encoded date                             : UTC 2018-09-21 04:20:36
Writing application                      : mkvmerge v26.0.0 ('In The Game') 64-bit
Writing library                          : libebml v1.3.6 + libmatroska v1.4.9
DURATION                                 : 02:01:22.389000000
NUMBER_OF_FRAMES                         : 1049
NUMBER_OF_BYTES                          : 5265420
_STATISTICS_WRITING_APP                  : mkvmerge v26.0.0 ('In The Game') 64-bit
_STATISTICS_WRITING_DATE_UTC             : 2018-09-21 04:20:36
_STATISTICS_TAGS                         : BPS DURATION NUMBER_OF_FRAMES NUMBER_OF_BYTES

Video
ID                                       : 1
Format                                   : AVC
Format/Info                              : Advanced Video Codec
Format profile                           : High@L4.1
Format settings, CABAC                   : Yes
Format settings, ReFrames                : 5 frames
Codec ID                                 : V_MPEG4/ISO/AVC
Duration                                 : 2h 2mn
Bit rate                                 : 9 996 Kbps
Width                                    : 1 920 pixels
Height                                   : 800 pixels
Display aspect ratio                     : 2.40:1
Frame rate mode                          : Constant
Frame rate                               : 23.976 fps
Color space                              : YUV
Chroma subsampling                       : 4:2:0
Bit depth                                : 8 bits
Scan type                                : Progressive
Bits/(Pixel*Frame)                       : 0.271
Stream size                              : 8.35 GiB (83%)
Writing library                          : x264 core 157 r2932 303c484
Encoding settings                        : cabac=1 / ref=5 / deblock=1:-3:-3 / analyse=0x3:0x113 / me=umh / subme=8 / psy=1 / psy_rd=1.00:0.00 / mixed_ref=1 / me_range=16 / chroma_me=1 / trellis=1 / 8x8dct=1 / cqm=0 / deadzone=21,11 / fast_pskip=1 / chroma_qp_offset=-2 / threads=24 / lookahead_threads=4 / sliced_threads=0 / nr=0 / decimate=1 / interlaced=0 / bluray_compat=0 / constrained_intra=0 / bframes=3 / b_pyramid=2 / b_adapt=1 / b_bias=0 / direct=3 / weightb=1 / open_gop=0 / weightp=2 / keyint=250 / keyint_min=23 / scenecut=40 / intra_refresh=0 / rc_lookahead=50 / rc=2pass / mbtree=1 / bitrate=9996 / ratetol=1.0 / qcomp=0.60 / qpmin=0 / qpmax=69 / qpstep=4 / cplxblur=20.0 / qblur=0.5 / ip_ratio=1.40 / aq=1:1.00
Default                                  : No
Forced                                   : No
DURATION                                 : 02:02:24.337000000
NUMBER_OF_FRAMES                         : 176088
NUMBER_OF_BYTES                          : 9174204549
_STATISTICS_WRITING_APP                  : mkvmerge v26.0.0 ('In The Game') 64-bit
_STATISTICS_WRITING_DATE_UTC             : 2018-09-21 04:20:36
_STATISTICS_TAGS                         : BPS DURATION NUMBER_OF_FRAMES NUMBER_OF_BYTES

Audio #1
ID                                       : 2
Format                                   : AC-3
Format/Info                              : Audio Coding 3
Mode extension                           : CM (complete main)
Format settings, Endianness              : Big
Codec ID                                 : A_AC3
Duration                                 : 2h 2mn
Bit rate mode                            : Constant
Bit rate                                 : 192 Kbps
Channel(s)                               : 2 channels
Channel positions                        : Front: L R
Sampling rate                            : 48.0 KHz
Bit depth                                : 16 bits
Compression mode                         : Lossy
Delay relative to video                  : 16ms
Stream size                              : 168 MiB (2%)
Language                                 : German
Default                                  : Yes
Forced                                   : No

Audio #2
ID                                       : 3
Format                                   : DTS
Format/Info                              : Digital Theater Systems
Mode                                     : 16
Format settings, Endianness              : Big
Codec ID                                 : A_DTS
Duration                                 : 2h 2mn
Bit rate mode                            : Constant
Bit rate                                 : 1 509 Kbps
Channel(s)                               : 6 channels
Channel positions                        : Front: L C R, Side: L R, LFE
Sampling rate                            : 48.0 KHz
Bit depth                                : 24 bits
Compression mode                         : Lossy
Stream size                              : 1.29 GiB (13%)
Language                                 : English
Default                                  : No
Forced                                   : No

Text #1
ID                                       : 4
Format                                   : UTF-8
Codec ID                                 : S_TEXT/UTF8
Codec ID/Info                            : UTF-8 Plain Text
Language                                 : German
Default                                  : Yes
Forced                                   : Yes

Text #2
ID                                       : 5
Format                                   : UTF-8
Codec ID                                 : S_TEXT/UTF8
Codec ID/Info                            : UTF-8 Plain Text
Language                                 : English
Default                                  : No
Forced                                   : Yes

Text #3
ID                                       : 6
Format                                   : VobSub
Muxing mode                              : zlib
Codec ID                                 : S_VOBSUB
Codec ID/Info                            : The same subtitle format used on DVDs
Language                                 : English
Default                                  : No
Forced                                   : No


Download:
Share Online Share OnlineShare OnlineShare Online
 

Kommentare