DNS SERVER AENDERNum der staatlichen Zensur zu umgehen. Sollten wir von eurem Provider geseprrt werden, nutzt den TOR BROWSER oder ändert euren DNS SERVER.

Filmwünsche können bei uns im Forum abgegeben werden

Wir Speichern Nicht




 
 
 
Top Releases
Racer.and.the.Jailbird.2017....
Racer.and.the.Jailbird.2017....
Racer.and.the.Jailbird.2017....
The.Girl.on.Train.2016.PROPE...
Solo.A.Star.Wars.Story.2018....
Solo.A.Star.Wars.Story.2018....
Solo.A.Star.Wars.Story.2018....
Outrage.Coda.GERMAN.2017.DL....
Outrage.Coda.GERMAN.2017.DL....
Solo.A.Star.Wars.Story.2018....

Cinedubs
No.Way.Out.Gegen.die.Flammen...
No.Way.Out.Gegen.die.Flammen...
The.First.Purge.German.DL.AC...
The.First.Purge.German.DL.AC...
Hotel.Transsilvanien.3.Ein.M...
Hotel.Transsilvanien.3.Ein.M...
Meg.German.DL.AC3.Dubbed.720...
Meg.German.DL.AC3.Dubbed.108...
Jurassic.World.2.Das.gefalle...
Mission.Impossible.Fallout.G...

Neuerscheinungen 2017-18
Steig.Nicht.Aus.2018.German....
Steig.Nicht.Aus.2018.German....
Triassic.World.2018.German.7...
Triassic.World.2018.German.D...
Steig.Nicht.Aus.2018.GERMAN....
Triassic.World.2018.MULTi.CO...
Anne.Clark.I.Will.Walk.Out.I...
Decommissioned.Anschlag.auf....
Decommissioned.Anschlag.auf....
Hes.Out.There.2018.GERMAN.DL...

XXX
KimberLeeLive.18.09.07.Ashly...
Hustler.18.09.09.Vanessa.Sky...
LezCuties.18.09.07.Zazie.Sky...
JulesJordan.18.09.10.Angela....
Lesbea.18.09.09.Emylia.Argan...
JimSlip.18.09.07.Mia.Evans.S...
LoneMilf.18.09.05.Pristine.E...
KarupsHA.18.09.08.Bailey.Blu...
LethalHardcore.Little.White....
Latin.Amateurs.Watch.Me.Bang...
InTheCrack.E1447.Daisy.Stone...
LethalHardcore.Little.White....
MILF.Private.Fantasies.4.XXX...
KarupsPC.18.09.06.Renee.3.Ha...
EvilAngel.Oiled.And.Spoiled....
FirstAnalQuest.18.09.10.Vero...
ATKHairy.18.09.10.Helen.Volg...
Disturbance.XXX.720p.WEBRip....
EvilAngel.Oiled.And.Spoiled....
EverythingButt.18.09.07.Chlo...

3D
Solo.A.Star.Wars.Story.3D.20...
Solo.A.Star.Wars.Story.3D.20...
Die.Biene.Maja.2.Die.Honigsp...
Avengers.Infinity.War.3D.201...
Avengers.Infinity.War.3D.201...
Rampage.Big.Meets.Bigger.3D....
Rampage.Big.Meets.Bigger.3D....
Rampage.Big.Meets.Bigger.3D....
Winter.Games.3D.2013.DUAL.CO...
Tomb.Raider.3D.2018.German.7...
Rampage.Big.Meets.Bigger.3D....
Rampage.Big.Meets.Bigger.3D....
Tomb.Raider.3D.2018.MULTi.CO...
Pacific.Rim.Uprising.3D.2018...
Ready.Player.One.3D.2018.Ger...

Old_Stuff
How.I.Met.Your.Mother.S02.Ge...
Akte.X.S01.German.DTS.DL.108...
Den.Himmel.gibts.echt.DL.108...
Vikings.S02.German.DL.1080p....
Be.Kind.Rewind.Abgedreht.200...
Be.Kind.Rewind.Abgedreht.200...
Dracula.The.Dark.Lord.2012.G...
21.2008.German.DL.1080p.BluR...
Achtung.fertig.WK.Swissgerma...
The.Ouija.Exorcism.2015.MULT...
Meine.liebe.Rabenmutter.germ...
Da.Vincis.Demons.S01.Complet...
Eragon.Das.Vermaechtnis.der....
Adele.und.das.Geheimnis.des....
Die.fabelhafte.Welt.der.Amel...

Filme
eXistenZ.GERMAN.1999.DL.1080...
eXistenZ.GERMAN.1999.DL.720p...
Snowfall.S02.GERMAN.DUBBED.7...
Ballers.S04.GERMAN.DUBBED.DL...
Ballers.S04.GERMAN.DUBBED.DL...
The.Handmaids.Tale.S02.Germa...
The.Handmaids.Tale.S02.Germa...
Mr.Mercedes.S02.German.DD+51...
Mr.Mercedes.S02.German.DD+51...
Greys.Anatomy.S14.German.Dub...
The.Deuce.S02.GERMAN.DL.1080...
The.Deuce.S02.GERMAN.DL.720p...
Mein.Mann.Godfrey.1936.Germa...
Ignatius.von.Loyola.2016.GER...
Good.Burger.Die.total.verrue...
Jack.und.Sarah.1995.German.D...
Batman.Assault.on.Arkham.201...
Jenny.aka.Jennie.-.Das.Portr...
Casino.Undercover.2017.Germa...
In.Northwood.2011.GERMAN.AC3...
Licht.im.Dunkel.1962.German....
The.Last.Man.On.Earth.S04.Ge...
Die.Simpsons.S29.GERMAN.DUBB...
Sleepwalker.2011.German.DL.1...

 
 
Steig.Nicht.Aus.2018.German.720p.BluRay.x264-ENCOUNTERS

Jahr: 2018
Genre: Thriller
Sprache: Deutsch DTS
Laufzeit: 1h 48mn
Bitrate: 3 463 Kbps
Format: MKV
Größe: 2.63 GiB
Release:

Beschreibung:

Der Berliner Bauunternehmer Karl Brendt will auf dem Weg zur Arbeit noch schnell seine Kinder zur Schule bringen, erhält jedoch kurz nachdem er losfährt einen Anruf eines Unbekannten, der das Auto mit einer Bombe präpariert hat und es in die Luft sprengen möchte, falls Karl oder die Kinder versuchen auszusteigen. Karl muss eine große Menge Geld beschaffen.



Complete name                            : encounters-stniau_720p.mkv
Format                                   : Matroska
Format version                           : Version 4 / Version 2
File size                                : 2.63 GiB
Duration                                 : 1h 48mn
Overall bit rate                         : 3 463 Kbps
Encoded date                             : UTC 2018-09-19 12:50:45
Writing application                      : mkvmerge v19.0.0 ('Brave Captain') 64-bit
Writing library                          : libebml v1.3.5 + libmatroska v1.4.8
DURATION                                 : 01:48:53.088000000
NUMBER_OF_FRAMES                         : 612477
NUMBER_OF_BYTES                          : 1232303724
_STATISTICS_WRITING_APP                  : mkvmerge v19.0.0 ('Brave Captain') 64-bit
_STATISTICS_WRITING_DATE_UTC             : 2018-09-19 12:50:45
_STATISTICS_TAGS                         : BPS DURATION NUMBER_OF_FRAMES NUMBER_OF_BYTES

Video
ID                                       : 1
Format                                   : AVC
Format/Info                              : Advanced Video Codec
Format profile                           : High@L4.1
Format settings, CABAC                   : Yes
Format settings, ReFrames                : 5 frames
Codec ID                                 : V_MPEG4/ISO/AVC
Duration                                 : 1h 48mn
Bit rate                                 : 1 885 Kbps
Width                                    : 1 280 pixels
Height                                   : 536 pixels
Display aspect ratio                     : 2.40:1
Frame rate mode                          : Constant
Frame rate                               : 24.000 fps
Color space                              : YUV
Chroma subsampling                       : 4:2:0
Bit depth                                : 8 bits
Scan type                                : Progressive
Bits/(Pixel*Frame)                       : 0.114
Stream size                              : 1.43 GiB (54%)
Title                                    : encounters-stniau_720p
Writing library                          : x264 core 155 r2901 7d0ff22
Encoding settings                        : cabac=1 / ref=5 / deblock=1:-1:-1 / analyse=0x3:0x133 / me=umh / subme=7 / psy=1 / psy_rd=1.00:0.15 / mixed_ref=1 / me_range=16 / chroma_me=1 / trellis=1 / 8x8dct=1 / cqm=0 / deadzone=21,11 / fast_pskip=0 / chroma_qp_offset=-3 / threads=17 / lookahead_threads=2 / sliced_threads=0 / nr=0 / decimate=1 / interlaced=0 / bluray_compat=0 / constrained_intra=0 / bframes=3 / b_pyramid=2 / b_adapt=1 / b_bias=0 / direct=1 / weightb=1 / open_gop=0 / weightp=2 / keyint=250 / keyint_min=24 / scenecut=40 / intra_refresh=0 / rc_lookahead=40 / rc=crf / mbtree=1 / crf=20.0 / qcomp=0.60 / qpmin=0 / qpmax=69 / qpstep=4 / ip_ratio=1.40 / aq=1:1.00
Default                                  : Yes
Forced                                   : No

Audio
ID                                       : 2
Format                                   : DTS
Format/Info                              : Digital Theater Systems
Mode                                     : 16
Format settings, Endianness              : Big
Codec ID                                 : A_DTS
Duration                                 : 1h 48mn
Bit rate mode                            : Constant
Bit rate                                 : 1 509 Kbps
Channel(s)                               : 6 channels
Channel positions                        : Front: L C R, Side: L R, LFE
Sampling rate                            : 48.0 KHz
Bit depth                                : 24 bits
Compression mode                         : Lossy
Stream size                              : 1.15 GiB (44%)
Title                                    : German DTS 5.1 @ 1 509 Kbps
Language                                 : German
Default                                  : Yes
Forced                                   : No


Download:
Share Online Share OnlineShare OnlineShare Online
 

Kommentare