DNS SERVER AENDERNum der staatlichen Zensur zu umgehen. Sollten wir von eurem Provider geseprrt werden, nutzt den TOR BROWSER oder ändert euren DNS SERVER.

Filmwünsche können bei uns im Forum abgegeben werden

Wir Speichern Nicht




 
 
 
Top Releases
Racer.and.the.Jailbird.2017....
Racer.and.the.Jailbird.2017....
Racer.and.the.Jailbird.2017....
The.Girl.on.Train.2016.PROPE...
Solo.A.Star.Wars.Story.2018....
Solo.A.Star.Wars.Story.2018....
Solo.A.Star.Wars.Story.2018....
Outrage.Coda.GERMAN.2017.DL....
Outrage.Coda.GERMAN.2017.DL....
Solo.A.Star.Wars.Story.2018....

Cinedubs
No.Way.Out.Gegen.die.Flammen...
The.First.Purge.German.DL.AC...
The.First.Purge.German.DL.AC...
Hotel.Transsilvanien.3.Ein.M...
Hotel.Transsilvanien.3.Ein.M...
Meg.German.DL.AC3.Dubbed.720...
Meg.German.DL.AC3.Dubbed.108...
Jurassic.World.2.Das.gefalle...
Mission.Impossible.Fallout.G...
Mission.Impossible.Fallout.G...

Neuerscheinungen 2017-18
Triassic.World.2018.German.7...
Triassic.World.2018.German.D...
Steig.Nicht.Aus.2018.GERMAN....
Triassic.World.2018.MULTi.CO...
Anne.Clark.I.Will.Walk.Out.I...
Decommissioned.Anschlag.auf....
Decommissioned.Anschlag.auf....
Hes.Out.There.2018.GERMAN.DL...
Hes.Out.There.2018.GERMAN.DL...
Weltengaenger.2018.GERMAN.10...

XXX
Hustler.18.09.09.Vanessa.Sky...
LezCuties.18.09.07.Zazie.Sky...
JulesJordan.18.09.10.Angela....
Lesbea.18.09.09.Emylia.Argan...
JimSlip.18.09.07.Mia.Evans.S...
LoneMilf.18.09.05.Pristine.E...
KarupsHA.18.09.08.Bailey.Blu...
LethalHardcore.Little.White....
Latin.Amateurs.Watch.Me.Bang...
InTheCrack.E1447.Daisy.Stone...
LethalHardcore.Little.White....
MILF.Private.Fantasies.4.XXX...
KarupsPC.18.09.06.Renee.3.Ha...
EvilAngel.Oiled.And.Spoiled....
FirstAnalQuest.18.09.10.Vero...
ATKHairy.18.09.10.Helen.Volg...
Disturbance.XXX.720p.WEBRip....
EvilAngel.Oiled.And.Spoiled....
EverythingButt.18.09.07.Chlo...
From.Teen.Ass.To.Teen.Mouth....

3D
Solo.A.Star.Wars.Story.3D.20...
Die.Biene.Maja.2.Die.Honigsp...
Avengers.Infinity.War.3D.201...
Avengers.Infinity.War.3D.201...
Rampage.Big.Meets.Bigger.3D....
Rampage.Big.Meets.Bigger.3D....
Rampage.Big.Meets.Bigger.3D....
Winter.Games.3D.2013.DUAL.CO...
Tomb.Raider.3D.2018.German.7...
Rampage.Big.Meets.Bigger.3D....
Rampage.Big.Meets.Bigger.3D....
Tomb.Raider.3D.2018.MULTi.CO...
Pacific.Rim.Uprising.3D.2018...
Ready.Player.One.3D.2018.Ger...
Rampage.-.Big.Meets.Bigger.2...

Old_Stuff
How.I.Met.Your.Mother.S02.Ge...
Akte.X.S01.German.DTS.DL.108...
Den.Himmel.gibts.echt.DL.108...
Vikings.S02.German.DL.1080p....
Be.Kind.Rewind.Abgedreht.200...
Be.Kind.Rewind.Abgedreht.200...
Dracula.The.Dark.Lord.2012.G...
21.2008.German.DL.1080p.BluR...
Achtung.fertig.WK.Swissgerma...
The.Ouija.Exorcism.2015.MULT...
Meine.liebe.Rabenmutter.germ...
Da.Vincis.Demons.S01.Complet...
Eragon.Das.Vermaechtnis.der....
Adele.und.das.Geheimnis.des....
Die.fabelhafte.Welt.der.Amel...

Filme
Snowfall.S02.GERMAN.DUBBED.7...
Ballers.S04.GERMAN.DUBBED.DL...
Ballers.S04.GERMAN.DUBBED.DL...
The.Handmaids.Tale.S02.Germa...
The.Handmaids.Tale.S02.Germa...
Mr.Mercedes.S02.German.DD+51...
Mr.Mercedes.S02.German.DD+51...
Greys.Anatomy.S14.German.Dub...
The.Deuce.S02.GERMAN.DL.1080...
The.Deuce.S02.GERMAN.DL.720p...
Mein.Mann.Godfrey.1936.Germa...
Ignatius.von.Loyola.2016.GER...
Good.Burger.Die.total.verrue...
Jack.und.Sarah.1995.German.D...
Batman.Assault.on.Arkham.201...
Jenny.aka.Jennie.-.Das.Portr...
Casino.Undercover.2017.Germa...
In.Northwood.2011.GERMAN.AC3...
Licht.im.Dunkel.1962.German....
The.Last.Man.On.Earth.S04.Ge...
Die.Simpsons.S29.GERMAN.DUBB...
Sleepwalker.2011.German.DL.1...
MacGyver.S02.GERMAN.DUBBED.D...
Young.Sheldon.S01.GERMAN.DUB...

 
 
Triassic.World.2018.German.DL.1080p.BluRay.x264-Pl3X

Jahr: 2018
Genre: Action, Horror
Sprache: Deutsch DTS | Englisch DTS
Laufzeit: 1h 29mn
Bitrate: 9 074 Kbps
Format: MKV
Größe: 5.65 GiB
Release:

Beschreibung:

Triassic World-Manche Dinge bleiben besser ausgestorben Inhalt: In einem unterirdischen Forschungskomplex, mitten von L.A forscht die Triassic Corporation an genetisch gezüchteten Organersatzteilen. Der gesamte Komplex isst streng geheim und militärisch abgeriegelt. In Zukunft, so die Hoffnung, sollen die Forschungen das Leben der Menschen verlängern. Grundlage der Forschung sind dabei die genetischen Codes von längst ausgestorbenen Raubsauriern, mit zellregenerierenden Eigenschaften. Diese wurden bereits erfolgreich geklont und untergebracht. Bei einer Führung entkommen jedoch die Raubsaurier aus den Labors und die gesamte Anlage wird hermetisch abgeriegelt. Die Eingeschlossenen müssen sich nun den fast unzerstörbaren Supersauriern entgegenstellen…



Complete name                            : pl3x-triassicworld-1080p.mkv
Format                                   : Matroska
Format version                           : Version 4 / Version 2
File size                                : 5.65 GiB
Duration                                 : 1h 29mn
Overall bit rate                         : 9 074 Kbps
Encoded date                             : UTC 2018-09-20 19:14:50
Writing application                      : mkvmerge v9.0.1 ('Obstacles') 64bit
Writing library                          : libebml v1.3.3 + libmatroska v1.4.4
DURATION                                 : 01:29:07.456000000
NUMBER_OF_FRAMES                         : 501324
NUMBER_OF_BYTES                          : 1008663888
_STATISTICS_WRITING_APP                  : mkvmerge v9.0.1 ('Obstacles') 64bit
_STATISTICS_WRITING_DATE_UTC             : 2018-09-20 19:14:50
_STATISTICS_TAGS                         : BPS DURATION NUMBER_OF_FRAMES NUMBER_OF_BYTES

Video
ID                                       : 1
Format                                   : AVC
Format/Info                              : Advanced Video Codec
Format profile                           : High@L4.1
Format settings, CABAC                   : Yes
Format settings, ReFrames                : 4 frames
Codec ID                                 : V_MPEG4/ISO/AVC
Duration                                 : 1h 29mn
Bit rate                                 : 5 875 Kbps
Width                                    : 1 920 pixels
Height                                   : 1 080 pixels
Display aspect ratio                     : 16:9
Frame rate mode                          : Constant
Frame rate                               : 23.976 fps
Color space                              : YUV
Chroma subsampling                       : 4:2:0
Bit depth                                : 8 bits
Scan type                                : Progressive
Bits/(Pixel*Frame)                       : 0.118
Stream size                              : 3.66 GiB (65%)
Writing library                          : x264 core 155 r2901 7d0ff22
Encoding settings                        : cabac=1 / ref=4 / deblock=1:-1:-1 / analyse=0x3:0x113 / me=umh / subme=7 / psy=1 / psy_rd=1.00:0.00 / mixed_ref=1 / me_range=16 / chroma_me=1 / trellis=1 / 8x8dct=1 / cqm=0 / deadzone=21,11 / fast_pskip=0 / chroma_qp_offset=-2 / threads=12 / lookahead_threads=2 / sliced_threads=0 / nr=0 / decimate=1 / interlaced=0 / bluray_compat=0 / constrained_intra=0 / bframes=3 / b_pyramid=2 / b_adapt=1 / b_bias=0 / direct=3 / weightb=1 / open_gop=0 / weightp=2 / keyint=250 / keyint_min=23 / scenecut=40 / intra_refresh=0 / rc_lookahead=40 / rc=crf / mbtree=1 / crf=20.0 / qcomp=0.60 / qpmin=0 / qpmax=69 / qpstep=4 / ip_ratio=1.40 / aq=1:1.00
Default                                  : Yes
Forced                                   : No

Audio #1
ID                                       : 2
Format                                   : DTS
Format/Info                              : Digital Theater Systems
Mode                                     : 16
Format settings, Endianness              : Big
Codec ID                                 : A_DTS
Duration                                 : 1h 29mn
Bit rate mode                            : Constant
Bit rate                                 : 1 509 Kbps
Channel(s)                               : 6 channels
Channel positions                        : Front: L C R, Side: L R, LFE
Sampling rate                            : 48.0 KHz
Bit depth                                : 24 bits
Compression mode                         : Lossy
Stream size                              : 962 MiB (17%)
Language                                 : German
Default                                  : Yes
Forced                                   : No

Audio #2
ID                                       : 3
Format                                   : DTS
Format/Info                              : Digital Theater Systems
Mode                                     : 16
Format settings, Endianness              : Big
Codec ID                                 : A_DTS
Duration                                 : 1h 29mn
Bit rate mode                            : Constant
Bit rate                                 : 1 509 Kbps
Channel(s)                               : 6 channels
Channel positions                        : Front: L C R, Side: L R, LFE
Sampling rate                            : 48.0 KHz
Bit depth                                : 24 bits
Compression mode                         : Lossy
Stream size                              : 962 MiB (17%)
Language                                 : English
Default                                  : No
Forced                                   : No





Download:
Share Online Share OnlineShare OnlineShare Online
 

Kommentare