DNS SERVER AENDERNum der staatlichen Zensur zu umgehen. Sollten wir von eurem Provider geseprrt werden, nutzt den TOR BROWSER oder ändert euren DNS SERVER.

Filmwünsche können bei uns im Forum abgegeben werden

Wir Speichern Nicht




 
 
 
Top Releases
Racer.and.the.Jailbird.2017....
The.Girl.on.Train.2016.PROPE...
Solo.A.Star.Wars.Story.2018....
Solo.A.Star.Wars.Story.2018....
Solo.A.Star.Wars.Story.2018....
Outrage.Coda.GERMAN.2017.DL....
Outrage.Coda.GERMAN.2017.DL....
Solo.A.Star.Wars.Story.2018....
Early.Man.Steinzeit.bereit.2...
The.Kings.Ring.Die.Letzte.Sc...

Cinedubs
The.First.Purge.German.DL.AC...
The.First.Purge.German.DL.AC...
Hotel.Transsilvanien.3.Ein.M...
Hotel.Transsilvanien.3.Ein.M...
Meg.German.DL.AC3.Dubbed.720...
Meg.German.DL.AC3.Dubbed.108...
Jurassic.World.2.Das.gefalle...
Mission.Impossible.Fallout.G...
Mission.Impossible.Fallout.G...
Sicario.2.2018.German.AC3MD....

Neuerscheinungen 2017-18
Steig.Nicht.Aus.2018.GERMAN....
Triassic.World.2018.MULTi.CO...
Anne.Clark.I.Will.Walk.Out.I...
Decommissioned.Anschlag.auf....
Decommissioned.Anschlag.auf....
Hes.Out.There.2018.GERMAN.DL...
Hes.Out.There.2018.GERMAN.DL...
Weltengaenger.2018.GERMAN.10...
Weltengaenger.2018.GERMAN.72...
Weltengaenger.2018.GERMAN.DU...

XXX
EvilAngel.Oiled.And.Spoiled....
FirstAnalQuest.18.09.10.Vero...
ATKHairy.18.09.10.Helen.Volg...
Disturbance.XXX.720p.WEBRip....
EvilAngel.Oiled.And.Spoiled....
EverythingButt.18.09.07.Chlo...
From.Teen.Ass.To.Teen.Mouth....
FoxxedUp.18.09.04.Licking.Pu...
DigitalDesire.18.09.05.Zoey....
FamilyLust.18.08.30.Kimber.W...
FemaleFakeTaxi.18.09.07.Broo...
FakeTaxi.18.09.09.Lola.Marie...
FakeDrivingSchool.18.09.10.L...
ElegantAngel.Bethany.XXX.108...
FootsieBabes.18.09.09.Shelle...
Disturbance.XXX.1080p.WEBRip...
ATKGirlfriends.18.09.10.Lily...
FreakMobMedia.18.08.31.Maria...
FitnessRooms.18.09.10.Cassie...
Fitting-Room.18.09.08.Talia....

3D
Solo.A.Star.Wars.Story.3D.20...
Die.Biene.Maja.2.Die.Honigsp...
Avengers.Infinity.War.3D.201...
Avengers.Infinity.War.3D.201...
Rampage.Big.Meets.Bigger.3D....
Rampage.Big.Meets.Bigger.3D....
Rampage.Big.Meets.Bigger.3D....
Winter.Games.3D.2013.DUAL.CO...
Tomb.Raider.3D.2018.German.7...
Rampage.Big.Meets.Bigger.3D....
Rampage.Big.Meets.Bigger.3D....
Tomb.Raider.3D.2018.MULTi.CO...
Pacific.Rim.Uprising.3D.2018...
Ready.Player.One.3D.2018.Ger...
Rampage.-.Big.Meets.Bigger.2...

Old_Stuff
How.I.Met.Your.Mother.S02.Ge...
Akte.X.S01.German.DTS.DL.108...
Den.Himmel.gibts.echt.DL.108...
Vikings.S02.German.DL.1080p....
Be.Kind.Rewind.Abgedreht.200...
Be.Kind.Rewind.Abgedreht.200...
Dracula.The.Dark.Lord.2012.G...
21.2008.German.DL.1080p.BluR...
Achtung.fertig.WK.Swissgerma...
The.Ouija.Exorcism.2015.MULT...
Meine.liebe.Rabenmutter.germ...
Da.Vincis.Demons.S01.Complet...
Eragon.Das.Vermaechtnis.der....
Adele.und.das.Geheimnis.des....
Die.fabelhafte.Welt.der.Amel...

Filme
Snowfall.S02.GERMAN.DUBBED.7...
Ballers.S04.GERMAN.DUBBED.DL...
Ballers.S04.GERMAN.DUBBED.DL...
The.Handmaids.Tale.S02.Germa...
The.Handmaids.Tale.S02.Germa...
Mr.Mercedes.S02.German.DD+51...
Mr.Mercedes.S02.German.DD+51...
Greys.Anatomy.S14.German.Dub...
The.Deuce.S02.GERMAN.DL.1080...
The.Deuce.S02.GERMAN.DL.720p...
Mein.Mann.Godfrey.1936.Germa...
Ignatius.von.Loyola.2016.GER...
Good.Burger.Die.total.verrue...
Jack.und.Sarah.1995.German.D...
Batman.Assault.on.Arkham.201...
Jenny.aka.Jennie.-.Das.Portr...
Casino.Undercover.2017.Germa...
In.Northwood.2011.GERMAN.AC3...
Licht.im.Dunkel.1962.German....
The.Last.Man.On.Earth.S04.Ge...
Die.Simpsons.S29.GERMAN.DUBB...
Sleepwalker.2011.German.DL.1...
MacGyver.S02.GERMAN.DUBBED.D...
Young.Sheldon.S01.GERMAN.DUB...

 
 
Ballers.S04.GERMAN.DUBBED.DL.720p.WebHD.x264-TVP

Jahr: 2018
Genre: Komödie | Drama | Sport
Sprache: Deutsch AC3 | Englisch AC3
Laufzeit: 31min je Folge
Bitrate: 2600 Kbps
Format: MKV
Größe: 750 MB je Folge
Release:

Beschreibung:

Die halbstündige HBO-Comedy Ballers beschreibt das Leben mehrerer ehemaliger und aktiver professioneller Footballspieler, ihren Agenten und Coaches und spielt im sonnigen Florida. Das ist die Heimat von Spencer Strassmore (Dwayne Johnson), der sein Trikot gegen feine Anzüge tauscht und nun Football-Agent wird. Dabei muss er einige neue Klienten akquirieren, was gar nicht so einfach ist. Unterstützt wird er von Joe (Rob Corddry, der ein Vollblutprofi ist, aber gerne Mal in das ein oder andere Fettnäpfchen steigt.

 

enthaltene Folgen:

Ballers.S04E01.Go.West.GERMAN.DUBBED.DL.720p.WebHD.x264-TVP NEU



General
Complete name                            : Ballers.S04E01.Go.West.GERMAN.DUBBED.DL.720p.WebHD.x264-TVP\tvp-ballers-s04e01-720p.mkv
Format                                   : Matroska
Format version                           : Version 2
File size                                : 729 MiB
Duration                                 : 31mn 24s
Overall bit rate                         : 3 243 Kbps
Movie name                               : Ballers.S04E01.Go.West.GERMAN.DUBBED.DL.720p.WebHD.x264-TVP
Encoded date                             : UTC 2018-09-20 18:23:34
Writing application                      : mkvmerge v5.6.0 ('Kenya Kane') built on May 28 2012 06:47:39
Writing library                          : libebml v1.2.2 + libmatroska v1.3.0

Video
ID                                       : 1
Format                                   : AVC
Format/Info                              : Advanced Video Codec
Format profile                           : High@L3.1
Format settings, CABAC                   : Yes
Format settings, ReFrames                : 5 frames
Codec ID                                 : V_MPEG4/ISO/AVC
Duration                                 : 31mn 24s
Bit rate                                 : 2 603 Kbps
Width                                    : 1 280 pixels
Height                                   : 720 pixels
Display aspect ratio                     : 16:9
Frame rate mode                          : Constant
Frame rate                               : 25.000 fps
Original frame rate                      : 23.976 fps
Color space                              : YUV
Chroma subsampling                       : 4:2:0
Bit depth                                : 8 bits
Scan type                                : Progressive
Bits/(Pixel*Frame)                       : 0.113
Stream size                              : 585 MiB (80%)
Title                                    : tvp-ballers-s04e01-720p
Language                                 : German
Default                                  : Yes
Forced                                   : Yes
Color primaries                          : BT.709
Transfer characteristics                 : BT.709
Matrix coefficients                      : BT.709

Audio #1
ID                                       : 2
Format                                   : AC-3
Format/Info                              : Audio Coding 3
Format profile                           : Dolby Digital
Mode extension                           : CM (complete main)
Format settings, Endianness              : Big
Codec ID                                 : A_AC3
Duration                                 : 31mn 24s
Bit rate mode                            : Constant
Bit rate                                 : 192 Kbps
Channel(s)                               : 2 channels
Channel positions                        : Front: L R
Sampling rate                            : 48.0 KHz
Bit depth                                : 16 bits
Compression mode                         : Lossy
Stream size                              : 43.1 MiB (6%)
Language                                 : German
Default                                  : Yes
Forced                                   : Yes

Audio #2
ID                                       : 3
Format                                   : AC-3
Format/Info                              : Audio Coding 3
Mode extension                           : CM (complete main)
Format settings, Endianness              : Big
Codec ID                                 : A_AC3
Duration                                 : 31mn 24s
Bit rate mode                            : Constant
Bit rate                                 : 384 Kbps
Channel(s)                               : 6 channels
Channel positions                        : Front: L C R, Side: L R, LFE
Sampling rate                            : 48.0 KHz
Bit depth                                : 16 bits
Compression mode                         : Lossy
Stream size                              : 86.3 MiB (12%)
Language                                 : English
Default                                  : No
Forced                                   : No



Download:
Share-Online.biz Share-Online.bizShare-Online.bizShare-Online.biz | Rapidgator.net Rapidgator.netRapidgator.netRapidgator.net
 

Kommentare