DNS SERVER AENDERNum der staatlichen Zensur zu umgehen. Sollten wir von eurem Provider geseprrt werden, nutzt den TOR BROWSER oder ändert euren DNS SERVER.

Filmwünsche können bei uns im Forum abgegeben werden

Wir Speichern Nicht




 
 
 
Top Releases
Solo.A.Star.Wars.Story.2018....
Solo.A.Star.Wars.Story.2018....
Solo.A.Star.Wars.Story.2018....
Outrage.Coda.GERMAN.2017.DL....
Outrage.Coda.GERMAN.2017.DL....
Solo.A.Star.Wars.Story.2018....
Early.Man.Steinzeit.bereit.2...
The.Kings.Ring.Die.Letzte.Sc...
Bleach.2018.German.DL.AC3.10...
Bleach.2018.German.DL.AC3.72...

Cinedubs
The.First.Purge.German.DL.AC...
The.First.Purge.German.DL.AC...
Hotel.Transsilvanien.3.Ein.M...
Hotel.Transsilvanien.3.Ein.M...
Meg.German.DL.AC3.Dubbed.720...
Meg.German.DL.AC3.Dubbed.108...
Jurassic.World.2.Das.gefalle...
Mission.Impossible.Fallout.G...
Mission.Impossible.Fallout.G...
Sicario.2.2018.German.AC3MD....

Neuerscheinungen 2017-18
Decommissioned.Anschlag.auf....
Decommissioned.Anschlag.auf....
Hes.Out.There.2018.GERMAN.DL...
Hes.Out.There.2018.GERMAN.DL...
Weltengaenger.2018.GERMAN.10...
Weltengaenger.2018.GERMAN.72...
Weltengaenger.2018.GERMAN.DU...
Zu.neuen.Ufern.1937.GERMAN.C...
Violet.Evergarden.Vol1.D1+2....
Robin.Hood.2010.MULTi.COMPLE...

XXX
ATKGirlfriends.18.09.09.Jane...
WankItNow.17.10.02.Ashley.Ri...
WcpClub.18.09.07.Christy.Lov...
VintageFlash.18.09.07.Tina.K...
DesperateAmateurs.18.09.09.B...
WankItNow.17.09.26.Faye.Coll...
Blacked.18.09.07.Alecia.Fox....
WankItNow.17.09.27.Gracie.Co...
WankItNow.17.09.26.Honour.Ma...
Bi-Sexually.Active.2.XXX.iNT...
ClubSeventeen.18.09.09.Jessi...
ATKHairy.18.09.06.Andy.Moon....
BlackedRaw.18.09.09.Zoe.Bloo...
BlaBlaCum.18.09.07.Candy.XXX...
Waterbirds.2.XXX.1080p.WEBRi...
Cosmid.18.09.10.Ruby.Stone.F...
VivThomas.18.09.07.Jia.Lissa...
DadCrush.18.09.09.Taylor.Pie...
BigButtsLikeItBig.18.09.10.K...
BeautyAndTheSenior.18.09.09....

3D
Die.Biene.Maja.2.Die.Honigsp...
Avengers.Infinity.War.3D.201...
Avengers.Infinity.War.3D.201...
Rampage.Big.Meets.Bigger.3D....
Rampage.Big.Meets.Bigger.3D....
Rampage.Big.Meets.Bigger.3D....
Winter.Games.3D.2013.DUAL.CO...
Tomb.Raider.3D.2018.German.7...
Rampage.Big.Meets.Bigger.3D....
Rampage.Big.Meets.Bigger.3D....
Tomb.Raider.3D.2018.MULTi.CO...
Pacific.Rim.Uprising.3D.2018...
Ready.Player.One.3D.2018.Ger...
Rampage.-.Big.Meets.Bigger.2...
Ready.Player.One.2018.3D.HOU...

Old_Stuff
How.I.Met.Your.Mother.S02.Ge...
Akte.X.S01.German.DTS.DL.108...
Den.Himmel.gibts.echt.DL.108...
Vikings.S02.German.DL.1080p....
Be.Kind.Rewind.Abgedreht.200...
Be.Kind.Rewind.Abgedreht.200...
Dracula.The.Dark.Lord.2012.G...
21.2008.German.DL.1080p.BluR...
Achtung.fertig.WK.Swissgerma...
The.Ouija.Exorcism.2015.MULT...
Meine.liebe.Rabenmutter.germ...
Da.Vincis.Demons.S01.Complet...
Eragon.Das.Vermaechtnis.der....
Adele.und.das.Geheimnis.des....
Die.fabelhafte.Welt.der.Amel...

Filme
101.Dalmatiner.1996.German.A...
Mad.Jack.Travelling.Forbidde...
Armed.And.Dangerous.Zwei.Unt...
Geheimbund.Schwarze.Legion.1...
Paranormal.Activity.3.2011.G...
The.Hunting.Party.2007.Germa...
Legends.of.Tomorrow.S03.Germ...
Gorillas.im.Nebel.1988.Germa...
Gorillas.im.Nebel.1988.Germa...
The.Guard.Post.2008.German.A...
Animal.Kingdom.S02.COMPLETE....
Animal.Kingdom.S02.COMPLETE....
MacGyver.S02.German.HDTV.108...
Better.Call.Saul.S04.German....
Legends.of.Tomorrow.S03.GERM...
Die.Simpsons.S29.GERMAN.DUBB...
Shooter.S03.COMPLETE.GERMAN....
Shooter.S03.COMPLETE.GERMAN....
Arrow.S06.GERMAN.DL.1080p.HD...
Arrow.S06.GERMAN.DL.720p.HDT...
Hammer.of.the.Gods.2013.Germ...
The.Big.Bang.Theory.S11.Germ...
The.Big.Bang.Theory.S11.Germ...
Quiz.Show.1994.German.AC3D.7...

 
 
Decommissioned.Anschlag.auf.Befehl.2016.German.720p.BluRay.x264-CHECKMATE

Jahr: 2016
Genre: Action, Thriller
Sprache: Deutsch AC3
Laufzeit: 1h 17mn
Bitrate: 2 098 Kbps
Format: MKV
Größe: 1.13 GiB
Release:

Beschreibung:

Der Ex-CIA-Agent John Niles hat mit seinem alten Leben abgeschlossen und führt mit Frau und Sohn ein ruhiges, beschauliches Leben als Versicherungsvertreter – bis er von Unbekannten entführt wird. Unter Folter soll er alles über eine geheime Operation verraten. Doch John beteuert, nichts darüber zu wissen. Als die Entführer offenbaren, dass sie auch Johns Familie gekidnappt haben, setzt dieser alles daran, Frau und Kind zu befreien. Doch das gestaltet sich alles andere als einfach …



Complete name                            : checkmate-decom.720p.mkv
Format                                   : Matroska
Format version                           : Version 2
File size                                : 1.13 GiB
Duration                                 : 1h 17mn
Overall bit rate                         : 2 098 Kbps
Writing application                      : mkvmerge v6.6.0 ('The Edge Of The In Between') built on Dec 1 2013 17:55:00
Writing library                          : libebml v1.3.0 + libmatroska v1.4.1

Video
ID                                       : 1
Format                                   : AVC
Format/Info                              : Advanced Video Codec
Format profile                           : High@L4.1
Format settings, CABAC                   : Yes
Format settings, ReFrames                : 5 frames
Codec ID                                 : V_MPEG4/ISO/AVC
Duration                                 : 1h 17mn
Bit rate                                 : 1 673 Kbps
Width                                    : 1 280 pixels
Height                                   : 536 pixels
Display aspect ratio                     : 2.40:1
Frame rate mode                          : Constant
Frame rate                               : 25.000 fps
Color space                              : YUV
Chroma subsampling                       : 4:2:0
Bit depth                                : 8 bits
Scan type                                : Progressive
Bits/(Pixel*Frame)                       : 0.098
Stream size                              : 922 MiB (80%)
Writing library                          : x264 core 155 r2901 7d0ff22
Encoding settings                        : cabac=1 / ref=5 / deblock=1:-2:-2 / analyse=0x3:0x133 / me=umh / subme=7 / psy=1 / psy_rd=1.00:0.00 / mixed_ref=1 / me_range=16 / chroma_me=1 / trellis=2 / 8x8dct=1 / cqm=0 / deadzone=21,11 / fast_pskip=0 / chroma_qp_offset=-2 / threads=12 / lookahead_threads=2 / sliced_threads=0 / nr=0 / decimate=1 / interlaced=0 / bluray_compat=0 / constrained_intra=0 / bframes=3 / b_pyramid=2 / b_adapt=1 / b_bias=0 / direct=1 / weightb=1 / open_gop=0 / weightp=1 / keyint=250 / keyint_min=25 / scenecut=40 / intra_refresh=0 / rc_lookahead=40 / rc=crf / mbtree=1 / crf=20.0 / qcomp=0.60 / qpmin=0 / qpmax=69 / qpstep=4 / ip_ratio=1.40 / aq=1:1.00
Language                                 : English
Default                                  : Yes
Forced                                   : No

Audio
ID                                       : 2
Format                                   : AC-3
Format/Info                              : Audio Coding 3
Mode extension                           : CM (complete main)
Format settings, Endianness              : Big
Codec ID                                 : A_AC3
Duration                                 : 1h 17mn
Bit rate mode                            : Constant
Bit rate                                 : 384 Kbps
Channel(s)                               : 6 channels
Channel positions                        : Front: L C R, Side: L R, LFE
Sampling rate                            : 48.0 KHz
Bit depth                                : 16 bits
Compression mode                         : Lossy
Stream size                              : 212 MiB (18%)
Title                                    : German
Language                                 : German
Default                                  : Yes
Forced                                   : No


Download:
Share Online Share OnlineShare OnlineShare Online
 

Kommentare