DNS SERVER AENDERNum der staatlichen Zensur zu umgehen. Sollten wir von eurem Provider geseprrt werden, nutzt den TOR BROWSER oder ändert euren DNS SERVER.

Filmwünsche können bei uns im Forum abgegeben werden

Wir Speichern Nicht




 
 
 
Top Releases
Outrage.Coda.GERMAN.2017.DL....
Outrage.Coda.GERMAN.2017.DL....
Solo.A.Star.Wars.Story.2018....
Early.Man.Steinzeit.bereit.2...
The.Kings.Ring.Die.Letzte.Sc...
Bleach.2018.German.DL.AC3.10...
Bleach.2018.German.DL.AC3.72...
Solo.A.Star.Wars.Story.2018....
Vorbilder.aka.Role.Models.UN...
Freddy.Eddy.2016.German.AC3....

Cinedubs
Hotel.Transsilvanien.3.Ein.M...
Hotel.Transsilvanien.3.Ein.M...
Meg.German.DL.AC3.Dubbed.720...
Meg.German.DL.AC3.Dubbed.108...
Jurassic.World.2.Das.gefalle...
Mission.Impossible.Fallout.G...
Mission.Impossible.Fallout.G...
Sicario.2.2018.German.AC3MD....
Sicario.2.2018.German.AC3MD....
The.Rider.2017.GERMAN.DL.AC3...

Neuerscheinungen 2017-18
Weltengaenger.2018.GERMAN.10...
Weltengaenger.2018.GERMAN.72...
Weltengaenger.2018.GERMAN.DU...
Zu.neuen.Ufern.1937.GERMAN.C...
Violet.Evergarden.Vol1.D1+2....
Robin.Hood.2010.MULTi.COMPLE...
Das.Blutbiest.The.Blood.Beas...
Der.Blaufuchs.1938.GERMAN.CO...
Pfad.des.Kriegers.2018.GERMA...
Pfad.des.Kriegers.2018.GERMA...

XXX
Boober.2.XXX.iNTERNAL.720p.W...
CherryPimps.18.09.10.Krissy....
BrownBunnies.18.09.07.Honey....
ATKHairy.18.09.09.Andy.Moon....
BrazzersExxtra.18.09.10.Lela...
BrattySis.18.09.07.Ashely.Oc...
WankItNow.17.10.03.Zoe.Page....
Beat.My.Beanbag.XXX.1080p.WE...
BrickYates.18.08.28.Alexis.C...
WoodmanCastingX.15.12.29.Ros...
Bang.RealTeens.18.09.10.Bamb...
WankItNow.17.10.04.Charlie.R...
ChicasLoca.18.09.10.Andreina...
ClaudiaMarie.18.09.07.Teen.D...
Babes.18.09.07.Misty.Stone.T...
WoodmanCastingX.15.12.05.Ley...
Babes.18.09.09.Gianna.Dior.B...
BrazzersExxtra.18.09.07.Vien...
WoodmanCastingX.15.07.26.Ann...
BadDaddyPOV.18.09.07.Sadie.H...

3D
Die.Biene.Maja.2.Die.Honigsp...
Avengers.Infinity.War.3D.201...
Avengers.Infinity.War.3D.201...
Rampage.Big.Meets.Bigger.3D....
Rampage.Big.Meets.Bigger.3D....
Rampage.Big.Meets.Bigger.3D....
Winter.Games.3D.2013.DUAL.CO...
Tomb.Raider.3D.2018.German.7...
Rampage.Big.Meets.Bigger.3D....
Rampage.Big.Meets.Bigger.3D....
Tomb.Raider.3D.2018.MULTi.CO...
Pacific.Rim.Uprising.3D.2018...
Ready.Player.One.3D.2018.Ger...
Rampage.-.Big.Meets.Bigger.2...
Ready.Player.One.2018.3D.HOU...

Old_Stuff
How.I.Met.Your.Mother.S02.Ge...
Akte.X.S01.German.DTS.DL.108...
Den.Himmel.gibts.echt.DL.108...
Vikings.S02.German.DL.1080p....
Be.Kind.Rewind.Abgedreht.200...
Be.Kind.Rewind.Abgedreht.200...
Dracula.The.Dark.Lord.2012.G...
21.2008.German.DL.1080p.BluR...
Achtung.fertig.WK.Swissgerma...
The.Ouija.Exorcism.2015.MULT...
Meine.liebe.Rabenmutter.germ...
Da.Vincis.Demons.S01.Complet...
Eragon.Das.Vermaechtnis.der....
Adele.und.das.Geheimnis.des....
Die.fabelhafte.Welt.der.Amel...

Filme
Sie.leben.1988.Collectors.Ed...
Die.Maske.des.Fu-Manchu.1932...
Rapid.Fire.Uncut.1992.German...
Robin.Hood.2010.UNRATED.Germ...
Elementary.S06.GERMAN.DUBBED...
Timeless.S02.COMPLETE.German...
Timeless.S02.COMPLETE.German...
Timeless.S01.COMPLETE.German...
Timeless.S01.COMPLETE.German...
Fear.The.Walking.Dead.S04.Ge...
Fear.The.Walking.Dead.S04.Ge...
Modern.Family.S08.GERMAN.DUB...
Succession.S01.German.DD51.S...
Succession.S01.German.DD51.S...
Crazy.Ex.Girlfriend.S03.Germ...
Crazy.Ex.Girlfriend.S03.Germ...
Caramel.2007.German.1080p.Bl...
Still.Walking.2008.German.AC...
Mel.Brooks.Hoehenkoller.1977...
The.Factory.2012.German.DL.1...
Three.Burials.Die.drei.Begra...
The.Hurricane.Heist.2018.Ger...
Der.Schatz.von.Caboblanco.Ca...
Three.Burials.-.Die.drei.Beg...

 
 
Hotel.Transsilvanien.3.Ein.Monster.Urlaub.German.DL.AC3.Dubbed.720p.WEBRip.x264-PsO

Jahr: 2018
Genre: Animation, Komödie
Sprache: Deutsch AC3 | Englisch AC3
Laufzeit: 1h 32mn
Bitrate: 3 809 Kbps
Format: MKV
Größe: 2.47 GiB
Release:

Beschreibung:

Mavis (Originalstimmer: Selena Gomez) überrascht ihren Vater Dracula (Adam Sandler) mit einem Familienurlaub auf einer luxuriösen Monster-Kreuzfahrt, damit er auch einmal ausspannen kann und sich nicht nur um das Wohlbefinden der Gäste seines Hotels kümmern muss. Den Spaß können sich der Rest der Familie und die monströsen Freunde natürlich nicht entgehen lassen und schließen sich an, als der mysteriöse Kahn in See sticht. Dracula entdeckt eine längst begraben geglaubte Gefühlswelt in sich, als er Captain Ericka erblickt und sich Hals über Kopf in sie verliebt. Nun ist es an Mavis, skeptisch zu bleiben und ihren Vater zur Vorsicht zu mahnen – denn es scheint einfach zu gut, um wahr zu sein. Und ihr übervorsorglicher Instinkt trübt sie nicht, denn tatsächlich verbirgt sich hinter Ericka eine Nachfahrin von Monsterjäger und Familien-Erzfeind Van Helsing…



Complete name                            : pso-ht3_webrip.720p.mkv
Format                                   : Matroska
Format version                           : Version 4 / Version 2
File size                                : 2.47 GiB
Duration                                 : 1h 32mn
Overall bit rate                         : 3 809 Kbps
Encoded date                             : UTC 2018-09-16 20:30:05
Writing application                      : mkvmerge v8.0.0 ('Til The Day That I Die') 64bit
Writing library                          : libebml v1.3.1 + libmatroska v1.4.2
DURATION                                 : 01:32:52.160000000
NUMBER_OF_FRAMES                         : 174130
NUMBER_OF_BYTES                          : 156020480
_STATISTICS_WRITING_APP                  : mkvmerge v8.0.0 ('Til The Day That I Die') 64bit
_STATISTICS_WRITING_DATE_UTC             : 2018-09-16 20:30:05
_STATISTICS_TAGS                         : BPS DURATION NUMBER_OF_FRAMES NUMBER_OF_BYTES

Video
ID                                       : 1
Format                                   : AVC
Format/Info                              : Advanced Video Codec
Format profile                           : High@L4.1
Format settings, CABAC                   : Yes
Format settings, ReFrames                : 4 frames
Codec ID                                 : V_MPEG4/ISO/AVC
Duration                                 : 1h 32mn
Bit rate                                 : 3 422 Kbps
Width                                    : 1 280 pixels
Height                                   : 720 pixels
Display aspect ratio                     : 16:9
Frame rate mode                          : Constant
Frame rate                               : 30.000 fps
Color space                              : YUV
Chroma subsampling                       : 4:2:0
Bit depth                                : 8 bits
Scan type                                : Progressive
Bits/(Pixel*Frame)                       : 0.124
Stream size                              : 2.15 GiB (87%)
Writing library                          : x264 core 142 r2479 dd79a61
Encoding settings                        : cabac=1 / ref=1 / deblock=1:0:0 / analyse=0x3:0x113 / me=hex / subme=2 / psy=1 / psy_rd=1.00:0.00 / mixed_ref=0 / me_range=16 / chroma_me=1 / trellis=0 / 8x8dct=1 / cqm=0 / deadzone=21,11 / fast_pskip=1 / chroma_qp_offset=0 / threads=18 / lookahead_threads=5 / sliced_threads=0 / nr=0 / decimate=1 / interlaced=0 / bluray_compat=0 / constrained_intra=0 / bframes=3 / b_pyramid=2 / b_adapt=1 / b_bias=0 / direct=1 / weightb=1 / open_gop=0 / weightp=1 / keyint=300 / keyint_min=30 / scenecut=40 / intra_refresh=0 / rc_lookahead=10 / rc=abr / mbtree=1 / bitrate=3422 / ratetol=1.0 / qcomp=0.60 / qpmin=0 / qpmax=69 / qpstep=4 / vbv_maxrate=62500 / vbv_bufsize=78125 / nal_hrd=none / filler=0 / ip_ratio=1.40 / aq=1:1.00
Default                                  : Yes
Forced                                   : No
Color primaries                          : BT.709
Transfer characteristics                 : BT.709
Matrix coefficients                      : BT.709
DURATION                                 : 01:32:52.100000000
NUMBER_OF_FRAMES                         : 167163
NUMBER_OF_BYTES                          : 2361769540
_STATISTICS_WRITING_APP                  : mkvmerge v8.0.0 ('Til The Day That I Die') 64bit
_STATISTICS_WRITING_DATE_UTC             : 2018-09-16 20:30:05
_STATISTICS_TAGS                         : BPS DURATION NUMBER_OF_FRAMES NUMBER_OF_BYTES

Audio #1
ID                                       : 2
Format                                   : AC-3
Format/Info                              : Audio Coding 3
Mode extension                           : CM (complete main)
Format settings, Endianness              : Big
Codec ID                                 : A_AC3
Duration                                 : 1h 32mn
Bit rate mode                            : Constant
Bit rate                                 : 224 Kbps
Channel(s)                               : 2 channels
Channel positions                        : Front: L R
Sampling rate                            : 48.0 KHz
Bit depth                                : 16 bits
Compression mode                         : Lossy
Delay relative to video                  : -67ms
Stream size                              : 149 MiB (6%)
Language                                 : German
Default                                  : Yes
Forced                                   : Yes
DURATION                                 : 01:32:52.128000000
NUMBER_OF_FRAMES                         : 174129
NUMBER_OF_BYTES                          : 133731072
_STATISTICS_WRITING_APP                  : mkvmerge v8.0.0 ('Til The Day That I Die') 64bit
_STATISTICS_WRITING_DATE_UTC             : 2018-09-16 20:30:05
_STATISTICS_TAGS                         : BPS DURATION NUMBER_OF_FRAMES NUMBER_OF_BYTES

Audio #2
ID                                       : 3
Format                                   : AC-3
Format/Info                              : Audio Coding 3
Mode extension                           : CM (complete main)
Format settings, Endianness              : Big
Codec ID                                 : A_AC3
Duration                                 : 1h 32mn
Bit rate mode                            : Constant
Bit rate                                 : 192 Kbps
Channel(s)                               : 2 channels
Channel positions                        : Front: L R
Sampling rate                            : 48.0 KHz
Bit depth                                : 16 bits
Compression mode                         : Lossy
Delay relative to video                  : -5ms
Stream size                              : 128 MiB (5%)
Title                                    : Stereo
Language                                 : English
Default                                  : No
Forced                                   : No


Download:
Share Online Share OnlineShare OnlineShare Online
 

Kommentare