DNS SERVER AENDERNum der staatlichen Zensur zu umgehen. Sollten wir von eurem Provider geseprrt werden, nutzt den TOR BROWSER oder ändert euren DNS SERVER.

Filmwünsche können bei uns im Forum abgegeben werden

Wir Speichern Nicht




 
 
 
Top Releases
Solo.A.Star.Wars.Story.2018....
Early.Man.Steinzeit.bereit.2...
The.Kings.Ring.Die.Letzte.Sc...
Bleach.2018.German.DL.AC3.10...
Bleach.2018.German.DL.AC3.72...
Solo.A.Star.Wars.Story.2018....
Vorbilder.aka.Role.Models.UN...
Freddy.Eddy.2016.German.AC3....
Im.Tal.von.Elah.2007.German....
Fannys.Reise.2016.GERMAN.720...

Cinedubs
Jurassic.World.2.Das.gefalle...
Mission.Impossible.Fallout.G...
Mission.Impossible.Fallout.G...
Sicario.2.2018.German.AC3MD....
Sicario.2.2018.German.AC3MD....
The.Rider.2017.GERMAN.DL.AC3...
The.Rider.2017.GERMAN.DL.AC3...
Solo.A.Star.Wars.Story.2018....
Solo.A.Star.Wars.Story.2018....
Jurassic.World.2.Das.gefalle...

Neuerscheinungen 2017-18
Zu.neuen.Ufern.1937.GERMAN.C...
Violet.Evergarden.Vol1.D1+2....
Robin.Hood.2010.MULTi.COMPLE...
Das.Blutbiest.The.Blood.Beas...
Der.Blaufuchs.1938.GERMAN.CO...
Pfad.des.Kriegers.2018.GERMA...
Pfad.des.Kriegers.2018.GERMA...
La.Habanera.1937.GERMAN.COMP...
Ein.Unbekannter.rechnet.ab.A...
Der.phantastische.Planet.La....

XXX
UltraFilms.18.08.15.Sade.Mar...
WoodmanCastingX.15.05.31.All...
WildOnCam.18.09.04.Danni.Riv...
WankItNow.17.09.16.Tammie.Le...
ThirdMovies.Interracial.Chee...
WoodmanCastingX.15.06.09.Meg...
Throated.18.09.04.Juliette.M...
ValoryIrene.18.05.04.Booted....
VIPissy.18.09.03.Puppy.And.C...
UltraFilms.18.08.09.Kira.And...
ValoryIrene.18.05.18.Valory....
WickedPictures.Axel.Brauns.B...
VintageFlash.18.09.03.Brook....
WildOnCam.18.09.03.Megan.Win...
ValoryIrene.18.06.01.Valory....
WildOnCam.18.09.04.Raven.Har...
WankItNow.17.09.17.Charlie.R...
TheLifeErotic.18.09.04.Mary....
TakeVan.18.09.03.Anna.Girl.F...
WoodmanCastingX.15.05.23.Ele...

3D
Die.Biene.Maja.2.Die.Honigsp...
Avengers.Infinity.War.3D.201...
Avengers.Infinity.War.3D.201...
Rampage.Big.Meets.Bigger.3D....
Rampage.Big.Meets.Bigger.3D....
Rampage.Big.Meets.Bigger.3D....
Winter.Games.3D.2013.DUAL.CO...
Tomb.Raider.3D.2018.German.7...
Rampage.Big.Meets.Bigger.3D....
Rampage.Big.Meets.Bigger.3D....
Tomb.Raider.3D.2018.MULTi.CO...
Pacific.Rim.Uprising.3D.2018...
Ready.Player.One.3D.2018.Ger...
Rampage.-.Big.Meets.Bigger.2...
Ready.Player.One.2018.3D.HOU...

Old_Stuff
How.I.Met.Your.Mother.S02.Ge...
Akte.X.S01.German.DTS.DL.108...
Den.Himmel.gibts.echt.DL.108...
Vikings.S02.German.DL.1080p....
Be.Kind.Rewind.Abgedreht.200...
Be.Kind.Rewind.Abgedreht.200...
Dracula.The.Dark.Lord.2012.G...
21.2008.German.DL.1080p.BluR...
Achtung.fertig.WK.Swissgerma...
The.Ouija.Exorcism.2015.MULT...
Meine.liebe.Rabenmutter.germ...
Da.Vincis.Demons.S01.Complet...
Eragon.Das.Vermaechtnis.der....
Adele.und.das.Geheimnis.des....
Die.fabelhafte.Welt.der.Amel...

Filme
Animal.Kingdom.S03.GERMAN.DD...
Animal.Kingdom.S03.GERMAN.72...
Greys.Anatomy.S14.German.Dub...
The.Flash.2014.S04.GERMAN.72...
Modern.Family.S08.GERMAN.DUB...
Marvels.Agents.of.S.H.I.E.L....
Marvels.Agents.of.S.H.I.E.L....
Longmire.S05.GERMAN.AC3.DL.H...
Gotham.S04.GERMAN.720p.HDTV....
The.51st.State.2001.German.7...
The.51st.State.2001.German.D...
Die.fuenf.Kampfmaschinen.der...
Die.fuenf.Kampfmaschinen.der...
China.Salesman.2017.German.D...
Smiles.Of.A.Summer.Night.Das...
Blaubarts.achte.Frau.1938.Ge...
Thats.What.I.Am.2011.German....
True.Detective.S02.COMPLETE....
True.Legend.2010.German.1080...
The.Hurricane.Heist.2018.Ger...
Robin.Hood.2010.Unrated.Dire...
Vanquisher.Final.Target.2009...
True.Detective.S01.COMPLETE....
L.Age.De.Raison.Vergissmichn...

 
 
Animal.Kingdom.S03.GERMAN.720p.HDTV.x264-ACED

Jahr: 2018
Genre: Kirmi | Drama
Sprache: Deutsch AC3
Laufzeit: 44min je Folge
Bitrate: 2300 Kbps
Format: MKV
Größe: 900 MB je Folge
Release:

Beschreibung:

Als der 17-jährige Joshua ‚J‘ Cody zu seinen Verwandten an die südkalifornische Küste zieht, wird er sogleich in ihr wildes und ausuferndes Leben hineingezogen. Doch bald findet Josh heraus, dass all der Luxus durch kriminelle Aktivitäten finanziert wird und es wird ihm klar, dass Teil der Cody-Familie zu sein mit einer ganzen Reihe Gefahren, aber auch jeder Menge Aufregung verbunden ist.

 

enthalten Folgen:

Animal.Kingdom.S03E01.GERMAN.720p.HDTV.x264-ACED NEU

Animal.Kingdom.S03E02.GERMAN.720p.HDTV.x264-ACED NEU



General
Complete name                            : Animal.Kingdom.S03E01.GERMAN.720p.HDTV.x264-ACED\Animal.Kingdom.S03E01.GERMAN.720p.HDTV.x264-ACED.mkv
Format                                   : Matroska
Format version                           : Version 2
File size                                : 878 MiB
Duration                                 : 44mn 1s
Overall bit rate                         : 2 790 Kbps
Encoded date                             : UTC 2018-09-16 00:46:59
Writing application                      : mkvmerge v26.0.0 ('In The Game') 64-bit
Writing library                          : libebml v1.3.6 + libmatroska v1.4.9
DURATION                                 : 00:44:01.280000000
NUMBER_OF_FRAMES                         : 82540
NUMBER_OF_BYTES                          : 126781440
_STATISTICS_WRITING_APP                  : mkvmerge v26.0.0 ('In The Game') 64-bit
_STATISTICS_WRITING_DATE_UTC             : 2018-09-16 00:46:59
_STATISTICS_TAGS                         : BPS DURATION NUMBER_OF_FRAMES NUMBER_OF_BYTES

Video
ID                                       : 1
Format                                   : AVC
Format/Info                              : Advanced Video Codec
Format profile                           : High@L4.1
Format settings, CABAC                   : Yes
Format settings, ReFrames                : 5 frames
Codec ID                                 : V_MPEG4/ISO/AVC
Duration                                 : 44mn 1s
Bit rate                                 : 2 350 Kbps
Width                                    : 1 280 pixels
Height                                   : 720 pixels
Display aspect ratio                     : 16:9
Frame rate mode                          : Constant
Frame rate                               : 25.000 fps
Color space                              : YUV
Chroma subsampling                       : 4:2:0
Bit depth                                : 8 bits
Scan type                                : Progressive
Bits/(Pixel*Frame)                       : 0.102
Stream size                              : 740 MiB (84%)
Writing library                          : x264 core 155 r2901 7d0ff22
Encoding settings                        : cabac=1 / ref=5 / deblock=1:-3:-3 / analyse=0x3:0x113 / me=umh / subme=9 / psy=1 / psy_rd=1.00:0.00 / mixed_ref=1 / me_range=16 / chroma_me=1 / trellis=2 / 8x8dct=1 / cqm=0 / deadzone=21,11 / fast_pskip=0 / chroma_qp_offset=-2 / threads=12 / lookahead_threads=1 / sliced_threads=0 / nr=0 / decimate=1 / interlaced=0 / bluray_compat=0 / constrained_intra=0 / bframes=3 / b_pyramid=2 / b_adapt=2 / b_bias=0 / direct=3 / weightb=1 / open_gop=0 / weightp=2 / keyint=250 / keyint_min=25 / scenecut=40 / intra_refresh=0 / rc_lookahead=50 / rc=crf / mbtree=1 / crf=18.0 / qcomp=0.60 / qpmin=0 / qpmax=69 / qpstep=4 / ip_ratio=1.40 / aq=1:1.00
Default                                  : Yes
Forced                                   : No

Audio
ID                                       : 2
Format                                   : AC-3
Format/Info                              : Audio Coding 3
Mode extension                           : CM (complete main)
Format settings, Endianness              : Big
Codec ID                                 : A_AC3
Duration                                 : 44mn 1s
Bit rate mode                            : Constant
Bit rate                                 : 384 Kbps
Channel(s)                               : 6 channels
Channel positions                        : Front: L C R, Side: L R, LFE
Sampling rate                            : 48.0 KHz
Bit depth                                : 16 bits
Compression mode                         : Lossy
Stream size                              : 121 MiB (14%)
Language                                 : German
Default                                  : Yes
Forced                                   : No



Download:
Share-Online.biz Share-Online.bizShare-Online.bizShare-Online.biz | Rapidgator.net Rapidgator.netRapidgator.netRapidgator.net
 

Kommentare